Скачать через торрент Правосудие Спенсера Spenser Confidential Фильм бесплатно в хорошем качестве torrent

Скачивайте на UnionPeer.org фильмы через торрент без регистрации. Новинки кино в хорошем качестве через торрент. На UnionPeer.org можно скачать через торрент фильмы 2014 и 2015 годов. Самые новые фильмы.

Скачать торрент Правосудие Спенсера Spenser Confidential бесплатно через .torrent фильм мультфильм сериал

Статистика раздачи
Размер:  4.68 GB   |    Зарегистрирован:  1 месяц 1 день   |    .torrent скачан:  254 раза   |   
Раздают:  1  
 

Скачать Правосудие Спенсера / Spenser Confidential (2020) WEB-DL 1080p | A через torrent

 
загрузка...
 
Автор Сообщение

Galfimbul ghost

avatar Galfimbul ghost


Правосудие Спенсера /Spenser Confidential

Год выхода: 2020
Жанр: Боевик, детектив, криминал
Режиссер: Питер Берг
В ролях: Марк Уолберг, Коллин Кэмп, Алан Аркин, Боким Вудбайн, Уинстон Дьюк, Элайза Шлезингер, Марк Мэрон, Майкл Гэстон, Кэсси, Леа Просито, Хоуп Олэйд Уилсон, Ганс Марреро, Джеймс ДюМонт, Кевин Маккормик, Александра Вино

О фильме:
Отсидев срок по ложному обвинению, бывший коп по имени Спенсер готов навсегда покинуть Бостон. Но для начала он закроет последний гештальт — выследит и накажет негодяев, убивших его давних коллег. Для этого главный герой объединяется с бойцом MMA Хоуком. Вместе им предстоит распутать хитрый клубок интриг из наркокартелей, грязных копов и продажных политиков, отправивших Спенсера за решётку.



Страна: США
Студия: Film 44, NetFlix, Original Film
Продолжительность: 01:50:10
Перевод: Авторский одноголосый | zamez

Файл
Кодек: AVC
Качество: WEB-DL 1080p | Spenser.Confidential.2020.1080p.NF.WEB-DL.DDP5.1.x264-NTG
Видео: MPEG-4 AVC, 5110 Kбит/с, 1920x1080, 24.000 кадр/с
Аудио #1: Русский (АС3, 2 ch, 192 Кбит/с, 48.0 KHz) Авторский (одноголосый, закадровый) Вячеслав Замез
Аудио #2: Английский (E-AC-3 JOC, 6 ch, 768 Кбит/с, 48.0 KHz)
Субтитры: Русские (Full), английские, испанские, французские, немецкие, итальянские, португальские | Нетфликс
? Без Рекламы!
Трейлер
Источник: Spenser.Confidential.2020.1080p.NF.WEB-DL.DDP5.1.x264-NTG
General
Unique ID : 215161021798539905751318517557336018590 (0xA1DE8166C9D3945DA6A875AE60B90E9E)
Complete name : Spenser.Confidential.2020.NF.WEB-DL.1080p.mkv
Format : Matroska
Format version : Version 4
File size : 4.68 GiB
Duration : 1 h 51 min
Overall bit rate mode : Variable
Overall bit rate : 6 023 kb/s
Encoded date : UTC 2020-03-06 16:56:52
Writing application : mkvmerge v7.1.0 ('Good Love') 64bit built on Jul 27 2014 13:06:55
Writing library : libebml v1.3.0 + libmatroska v1.4.1

Video
ID : 1
Format : AVC
Format/Info : Advanced Video Codec
Format profile : Main@L4
Format settings : CABAC / 3 Ref Frames
Format settings, CABAC : Yes
Format settings, Reference fra : 3 frames
Codec ID : V_MPEG4/ISO/AVC
Duration : 1 h 51 min
Bit rate mode : Variable
Bit rate : 5 110 kb/s
Maximum bit rate : 7 665 kb/s
Width : 1 920 pixels
Height : 1 080 pixels
Display aspect ratio : 16:9
Frame rate mode : Constant
Frame rate : 24.000 FPS
Color space : YUV
Chroma subsampling : 4:2:0
Bit depth : 8 bits
Scan type : Progressive
Bits/(Pixel*Frame) : 0.103
Stream size : 3.93 GiB (84%)
Writing library : x264 core 148 r2717 0d2410d
Encoding settings : cabac=1 / ref=3 / deblock=1:0:0 / analyse=0x1:0x111 / me=umh / subme=10 / psy=1 / psy_rd=1.00:0.00 / mixed_ref=1 / me_range=24 / chroma_me=1 / trellis=2 / 8x8dct=0 / cqm=0 / deadzone=21,11 / fast_pskip=1 / chroma_qp_offset=-2 / threads=8 / lookahead_threads=1 / sliced_threads=0 / nr=0 / decimate=1 / interlaced=0 / bluray_compat=0 / stitchable=1 / constrained_intra=0 / bframes=2 / b_pyramid=0 / b_adapt=2 / b_bias=0 / direct=3 / weightb=1 / open_gop=0 / weightp=2 / keyint=250 / keyint_min=24 / scenecut=0 / intra_refresh=0 / rc_lookahead=48 / rc=2pass / mbtree=1 / bitrate=5110 / ratetol=1.0 / qcomp=0.50 / qpmin=6 / qpmax=51 / qpstep=4 / cplxblur=20.0 / qblur=0.5 / vbv_maxrate=7665 / vbv_bufsize=10220 / nal_hrd=vbr / filler=0 / ip_ratio=1.40 / aq=1:1.00
Language : English
Default : Yes
Forced : No

Audio #1
ID : 2
Format : AC-3
Format/Info : Audio Coding 3
Commercial name : Dolby Digital
Codec ID : A_AC3
Duration : 1 h 51 min
Bit rate mode : Constant
Bit rate : 192 kb/s
Channel(s) : 2 channels
Channel layout : L R
Sampling rate : 48.0 kHz
Frame rate : 31.250 FPS (1536 SPF)
Compression mode : Lossy
Stream size : 153 MiB (3%)
Title : zamez
Language : Russian
Service kind : Complete Main
Default : Yes
Forced : No

Audio #2
ID : 3
Format : E-AC-3 JOC
Format/Info : Enhanced AC-3 with Joint Object Coding
Commercial name : Dolby Digital Plus with Dolby Atmos
Codec ID : A_EAC3
Duration : 1 h 51 min
Bit rate mode : Constant
Bit rate : 768 kb/s
Channel(s) : 6 channels
Channel layout : L R C LFE Ls Rs
Sampling rate : 48.0 kHz
Frame rate : 31.250 FPS (1536 SPF)
Compression mode : Lossy
Stream size : 611 MiB (13%)
Language : English
Service kind : Complete Main
Default : No
Forced : No
Complexity index : 16
Number of dynamic objects : 15
Bed channel count : 1 channel
Bed channel configuration : LFE

Text #1
ID : 4
Format : UTF-8
Codec ID : S_TEXT/UTF8
Codec ID/Info : UTF-8 Plain Text
Duration : 1 h 49 min
Bit rate : 103 b/s
Count of elements : 1606
Stream size : 83.3 KiB (0%)
Language : Russian
Default : No
Forced : No

Text #2
ID : 5
Format : UTF-8
Codec ID : S_TEXT/UTF8
Codec ID/Info : UTF-8 Plain Text
Duration : 1 h 44 min
Bit rate : 78 b/s
Count of elements : 1698
Stream size : 60.3 KiB (0%)
Language : English
Default : No
Forced : No

Text #3
ID : 6
Format : UTF-8
Codec ID : S_TEXT/UTF8
Codec ID/Info : UTF-8 Plain Text
Duration : 1 h 44 min
Bit rate : 88 b/s
Count of elements : 1906
Stream size : 67.7 KiB (0%)
Title : SDH
Language : English
Default : No
Forced : No

Text #4
ID : 7
Format : UTF-8
Codec ID : S_TEXT/UTF8
Codec ID/Info : UTF-8 Plain Text
Duration : 1 h 44 min
Bit rate : 59 b/s
Count of elements : 1516
Stream size : 45.5 KiB (0%)
Language : German
Default : No
Forced : No

Text #5
ID : 8
Format : UTF-8
Codec ID : S_TEXT/UTF8
Codec ID/Info : UTF-8 Plain Text
Duration : 1 h 49 min
Bit rate : 61 b/s
Count of elements : 1570
Stream size : 49.5 KiB (0%)
Language : French
Default : No
Forced : No

Text #6
ID : 9
Format : UTF-8
Codec ID : S_TEXT/UTF8
Codec ID/Info : UTF-8 Plain Text
Duration : 1 h 49 min
Bit rate : 55 b/s
Count of elements : 1582
Stream size : 44.8 KiB (0%)
Title : European
Language : Spanish
Default : No
Forced : No

Text #7
ID : 10
Format : UTF-8
Codec ID : S_TEXT/UTF8
Codec ID/Info : UTF-8 Plain Text
Duration : 1 h 49 min
Bit rate : 59 b/s
Count of elements : 1548
Stream size : 47.7 KiB (0%)
Language : Italian
Default : No
Forced : No

Text #8
ID : 11
Format : UTF-8
Codec ID : S_TEXT/UTF8
Codec ID/Info : UTF-8 Plain Text
Duration : 1 h 49 min
Bit rate : 64 b/s
Count of elements : 1572
Stream size : 51.7 KiB (0%)
Language : Portuguese
Default : No
Forced : No
Источник http://listRutor.org

Трекер:  [ 06-Мар-2020 20:30 ]

  

Скачать .torrent

Размер .torrent файла 12 KB


Размер: 4.68 GB
Хэш (hash) релиза: b5c633c092185f2a45849bda7d9e6099ae1b30ab
Подписка на обновления:

Торренты, похожие на Правосудие Спенсера Spenser Confidential скачать торрент

Форум Название Автор Размер S L Добавлен
Зарубежные фильмы 2016-2019 (Новинки зарубежного кино) ·%· Правосудие Спенсера / Spenser Confidential (2020) WEBRip 720p | P, A Galfimbul ghost 68779365896.41 GB 0 0 1585745407

15:50

1-Апр-20

Зарубежные фильмы 2016-2019 (Новинки зарубежного кино) ·· Правосудие Спенсера / Spenser Confidential (2020) WEB-DLRip-AVC от ExKinoRay | HDRezka Studio Galfimbul ghost 18086884651.68 GB 0 0 1584138628

01:30

14-Мар-20

Зарубежные фильмы 2016-2019 (Новинки зарубежного кино) ·· Правосудие Спенсера / Spenser Confidential (2020) WEB-DLRip от MegaPeer | HDRezka Studio Galfimbul ghost 15686493681.46 GB 0 0 1584042021

22:40

12-Мар-20

Зарубежные фильмы 2016-2019 (Новинки зарубежного кино) ·· Правосудие Спенсера / Spenser Confidential (2020) WEB-DL 1080p | P, A Galfimbul ghost 57693504935.37 GB 0 0 1584032423

20:00

12-Мар-20

Зарубежные фильмы 2016-2019 (Новинки зарубежного кино) ·· Правосудие Спенсера / Spenser Confidential (2020) WEBRip 1080p | HDrezka Studio Galfimbul ghost 1534270515114.29 GB 0 0 1584021621

17:00

12-Мар-20

Зарубежные фильмы 2016-2019 (Новинки зарубежного кино) ·· Правосудие Спенсера / Spenser Confidential (2020) WEBRip-AVC | HDrezka Studio Galfimbul ghost 778050328742 MB 0 0 1584007261

13:01

12-Мар-20

Зарубежные фильмы 2016-2019 (Новинки зарубежного кино) ·· Правосудие Спенсера / Spenser Confidential (2020) WEB-DLRip от Scarabey | A Galfimbul ghost 15511429121.44 GB 0 0 1583686368

19:52

8-Мар-20

Зарубежные фильмы 2016-2019 (Новинки зарубежного кино) ·· Правосудие Спенсера / Spenser Confidential (2020) WEB-DL 720p | A Galfimbul ghost 35992538993.35 GB 0 0 1583526629

23:30

6-Мар-20

Зарубежные фильмы 2016-2019 (Новинки зарубежного кино) ·· Правосудие Спенсера / Spenser Confidential (2020) WEBRip | A Galfimbul ghost 16030740481.49 GB 2 0 1583511637

19:20

6-Мар-20

Зарубежные фильмы 2016-2019 (Новинки зарубежного кино) ·· Правосудие Спенсера / Spenser Confidential (2020) WEB-DL 1080p | Sub Galfimbul ghost 48616704024.53 GB 0 0 1583503216

17:00

6-Мар-20

Еще никто не оставлял запись к записи скачать торрент Правосудие Спенсера Spenser Confidential . Будь первым!

!Обратная связь