Скачать через торрент Вторжение Фильм бесплатно в хорошем качестве torrent

Скачивайте на UnionPeer.org фильмы через торрент без регистрации. Новинки кино в хорошем качестве через торрент. На UnionPeer.org можно скачать через торрент фильмы 2014 и 2015 годов. Самые новые фильмы.

Скачать торрент Вторжение бесплатно через .torrent фильм мультфильм сериал

Статистика раздачи
Размер:  4.27 GB   |    Зарегистрирован:  1 месяц   |    .torrent скачан:  410 раз   |   
Раздают:  2  
 

Скачать Вторжение (2019) WEBRip 1080p через torrent

 
загрузка...
 
Автор Сообщение

Galfimbul ghost

avatar Galfimbul ghost


Вторжение

Год выхода: 2019
Жанр: Фантастика, боевик
Страна: Россия
Перевод: Не требуется
Продолжительность: 02:07:50
Режиссер: Фёдор Бондарчук
В ролях: Ирина Старшенбаум, Риналь Мухаметов, Александр Петров, Юрий Борисов, Сергей Гармаш, Олег Меньшиков, Даниил Кользенов, Сергей Троев, Игорь Костерин, Екатерина Степанова и др.

О фильме: Падение инопланетного объекта разделило жизни на «до» и «после». Обычная девушка из московского Чертанова — Юлия Лебедева — вынуждена смириться с ролью подопытного кролика в лаборатории, ведь она единственная была в контакте с пришельцем. Ученые и военные разбирают на атомы её чувства, эмоции и переживания, пытаясь разгадать природу растущей в ней силы. Но страшнее всего, что её сверхъестественные способности волнуют не только землян. Над планетой в буквальном смысле нависла угроза вторжения. И победить в грядущем столкновении можно только одним способом: найти в себе силы остаться людьми. Когда каждый ради общего спасения должен сделать выбор, от которого зависит жизнь и судьба миллионов, — смогут ли любовь, верность и милосердие стать сильнее безжалостной силы и инопланетных технологий?



Файл
Качество: WEBRip 1080p
Видео: MPEG-4 AVC, 1920x716, 4585 kbps, 25,000 fps
Звук: русский, AC3, 2.0 ch, 48 kHz, 192 kbps
Субтитры: нет
Общее
Уникальный идентификатор : 244713934595729209371804119692035291179 (0xB81A307F7234D697B82E407E0034F82B)
Полное имя : G:Torrent2VtorzhenieWebRip1080p.mkv
Формат : Matroska
Версия формата : Version 4 / Version 2
Размер файла : 4,27 Гбайт
Продолжительность : 2 ч. 7 м.
Общий поток : 4779 Кбит/сек
Дата кодирования : UTC 2020-03-07 15:01:41
Программа кодирования : mkvmerge v9.5.0 (''Quiet Fire'') 64bit
Библиотека кодирования : libebml v1.3.4 + libmatroska v1.4.5

Видео
Идентификатор : 1
Формат : AVC
Формат/Информация : Advanced Video Codec
Профиль формата : High@L4.1
Настройки формата : CABAC / 5 Ref Frames
Параметр CABAC формата : Да
Параметр RefFrames формата : 5 кадров
Идентификатор кодека : V_MPEG4/ISO/AVC
Продолжительность : 2 ч. 7 м.
Битрейт : 4585 Кбит/сек
Ширина : 1920 пикселей
Высота : 716 пикселей
Соотношение сторон : 2,682
Режим частоты кадров : Постоянный
Частота кадров : 25,000 кадров/сек
Цветовое пространство : YUV
Субдискретизация насыщенности : 4:2:0
Битовая глубина : 8 бит
Тип развёртки : Прогрессивная
Бит/(Пиксели*Кадры) : 0.133
Размер потока : 4,09 Гбайт (96%)
Язык : Russian
Default : Да
Forced : Нет

Аудио
Идентификатор : 2
Формат : AC-3
Формат/Информация : Audio Coding 3
Параметр Endianness формата : Big
Идентификатор кодека : A_AC3
Продолжительность : 2 ч. 7 м.
Вид битрейта : Постоянный
Битрейт : 192 Кбит/сек
Каналы : 2 канала
Расположение каналов : Front: L R
Частота : 48,0 КГц
Частота кадров : 31,250 кадров/сек (1536 SPF)
Битовая глубина : 16 бит
Метод сжатия : С потерями
Размер потока : 176 Мбайт (4%)
Заголовок : rus
Язык : Russian
Default : Да
Forced : Нет
Источник http://listRutor.org

Трекер:  [ 07-Мар-2020 19:40 ]

  

Скачать .torrent

Размер .torrent файла 11 KB


Размер: 4.27 GB
Хэш (hash) релиза: cdc18201599962d30c5462f13e7653c53b8c23a8
Подписка на обновления:

Торренты, похожие на Вторжение скачать торрент

Форум Название Автор Размер S L Добавлен
Зарубежные фильмы 2016-2019 (Новинки зарубежного кино) ·%· Инопланетное вторжение: Битва за Лос-Анджелес / Battle: Los Angeles (2011) WEB-DLRip 720p от MediaClub | D, A | Open Matte Galfimbul ghost 59177549785.51 GB 0 0 1585242611

20:10

26-Мар-20

Российские фильмы 2016-2020 (Новинки русского кино) ·· Вторжение (2019) BDRip-AVC | GER Transfer | Лицензия Galfimbul ghost 30803569802.87 GB 2 0 1584436301

12:11

17-Мар-20

Российские фильмы 2016-2020 (Новинки русского кино) ·· Вторжение (2019) HDRip от Scarabey Galfimbul ghost 15539261441.45 GB 2 0 1584379895

20:31

16-Мар-20

Российские фильмы 2016-2020 (Новинки русского кино) ·· Вторжение (2019) BDRip от Twister & ExKinoRay | GER Transfer | Лицензия Galfimbul ghost 23453372162.18 GB 0 0 1584300767

22:32

15-Мар-20

Российские фильмы 2016-2020 (Новинки русского кино) ·· Вторжение (2019) BDRip от Twister & ExKinoRay | GER Transfer | Лицензия Galfimbul ghost 15719922601.46 GB 0 0 1584299576

22:12

15-Мар-20

Российские фильмы 2016-2020 (Новинки русского кино) ·· Вторжение (2019) BDRip 1080p от HDReactor | GER Transfer Galfimbul ghost 1250837513411.65 GB 0 0 1584253893

09:31

15-Мар-20

Российские фильмы 2016-2020 (Новинки русского кино) ·· Вторжение (2019) BDRip-HEVC 1080p от HEVC-CLUB | GER Transfer | Лицензия Galfimbul ghost 75397608617.02 GB 0 0 1584230438

03:00

15-Мар-20

Российские фильмы 2016-2020 (Новинки русского кино) ·· Вторжение (2019) BDRip 720p от k.e.n & MegaPeer | GER Transfer | Лицензия Galfimbul ghost 46955314284.37 GB 0 0 1584151820

05:10

14-Мар-20

Российские фильмы 2016-2020 (Новинки русского кино) ·· Вторжение (2019) BDRip 1080p от OlLanDGroup | GER Transfer | Лицензия Galfimbul ghost 1177633205910.97 GB 2 0 1584091849

12:30

13-Мар-20

Российские фильмы 2016-2020 (Новинки русского кино) ·· Вторжение (2019) BDRip-AVC от ExKinoRay | GER Transfer | Лицензия Galfimbul ghost 781770686746 MB 0 0 1584077420

08:30

13-Мар-20

Российские фильмы 2016-2020 (Новинки русского кино) ·· Вторжение (2019) BDRip 720p от ExKinoRay | GER Transfer | Лицензия Galfimbul ghost 55913950305.21 GB 0 0 1584055840

02:30

13-Мар-20

Российские фильмы 2016-2020 (Новинки русского кино) ·· Вторжение (2019) BDRip-AVC | GER Transfer | Лицензия Galfimbul ghost 15655499891.46 GB 2 0 1584049828

00:50

13-Мар-20

Российские фильмы 2016-2020 (Новинки русского кино) ·· Вторжение (2019) BDRip-AVC | GER Transfer | Лицензия Galfimbul ghost 23396303992.18 GB 2 0 1584036026

21:00

12-Мар-20

Российские фильмы 2016-2020 (Новинки русского кино) ·· Вторжение (2019) HDRip от Generalfilm | КПК | GER Transfer | Лицензия Galfimbul ghost 531702269507 MB 0 0 1584020527

16:42

12-Мар-20

Российские фильмы 2016-2020 (Новинки русского кино) ·· Вторжение (2019) BDRip от MegaPeer | GER Transfer | Лицензия Galfimbul ghost 15678279681.46 GB 0 0 1584008486

13:21

12-Мар-20

Российские фильмы 2016-2020 (Новинки русского кино) ·· Вторжение (2019) BDRip от MegaPeer | GER Transfer | Лицензия Galfimbul ghost 23434567682.18 GB 0 0 1584008462

13:21

12-Мар-20

Российские фильмы 2016-2020 (Новинки русского кино) ·· Вторжение (2019) BDRip | GER Transfer | Лицензия Galfimbul ghost 15737794561.47 GB 0 0 1584002430

11:40

12-Мар-20

Российские фильмы 2016-2020 (Новинки русского кино) ·· Вторжение (2019) BDRip | GER Transfer | Лицензия Galfimbul ghost 23492403202.19 GB 0 0 1583999468

10:51

12-Мар-20

Российские фильмы 2016-2020 (Новинки русского кино) ·· Вторжение (2019) BDRip 1080p от селезень | GER Transfer | Лицензия Galfimbul ghost 1291599022912.03 GB 0 0 1583987436

07:30

12-Мар-20

Российские фильмы 2016-2020 (Новинки русского кино) ·· Вторжение (2019) BDRemux 1080p от селезень | GER Transfer | Лицензия Galfimbul ghost 3745679724134.88 GB 0 0 1583970032

02:40

12-Мар-20

Еще никто не оставлял запись к записи скачать торрент Вторжение . Будь первым!

!Обратная связь