Maki Yamada - UnionPeer.org HD

2015, 2014 UnionPeer.org

.

1.37 GB   |    :  3 2    |    .torrent :  149    |   
1  
   
 

Galfimbul

avatar Galfimbul


Maki Yamada - [Pacopacomama.com]

: 2020 .
: Japan
: Asian, Blowjob, Cowgirl, Creampie, Hairy, Doggy Style, Small Tits, Small Cock, Toy
: 1 h 6 min
:

:
: 022220_259
: Release Date: 2020-02-22
Duration: 01:02:49
Name: Maki Yamada
Age: 23
Size: B80 W61 H90

HD : 720p
: VOD
: MP4
: log MediaInfo
: log MediaInfo








Format : MPEG-4
Format profile : Base Media / Version 2
Codec ID : mp42 (mp42/isom/avc1)
File size : 1.37 GiB
Duration : 1 h 6 min
Overall bit rate mode : Variable
Overall bit rate : 2 967 kb/s
Writing application : TMPGEnc Video Mastering Works 5 Version. 5.0.6.38

Video
ID : 2
Format : AVC
Format/Info : Advanced Video Codec
Format profile : [email protected]
Format settings : CABAC / 3 Ref Frames
Format settings, CABAC : Yes
Format settings, Reference : 3 frames
Codec ID : avc1
Codec ID/Info : Advanced Video Coding
Duration : 1 h 6 min
Bit rate mode : Constant
Bit rate : 2 835 kb/s
Nominal bit rate : 3 000 kb/s / 3 000 kb/s
Width : 1 280 pixels
Height : 720 pixels
Display aspect ratio : 16:9
Frame rate mode : Constant
Frame rate : 29.970 (30000/1001) FPS
Standard : NTSC
Color space : YUV
Chroma subsampling : 4:2:0
Bit depth : 8 bits
Scan type : Progressive
Bits/(Pixel*Frame) : 0.103
Stream size : 1.31 GiB (96%)
Writing library : x264 core 114
Encoding settings : cabac=1 / ref=3 / deblock=1:0:0 / analyse=0x3:0x113 / me=hex / subme=7 / psy=1 / psy_rd=1.00:0.00 / mixed_ref=1 / me_range=16 / chroma_me=1 / trellis=1 / 8x8dct=1 / cqm=2 / deadzone=21,11 / fast_pskip=1 / chroma_qp_offset=-2 / threads=6 / sliced_threads=0 / slices=1 / nr=0 / decimate=1 / interlaced=0 / constrained_intra=0 / bframes=3 / b_pyramid=0 / b_adapt=1 / b_bias=0 / direct=1 / weightb=1 / open_gop=0 / weightp=2 / keyint=250 / keyint_min=25 / scenecut=40 / intra_refresh=0 / rc_lookahead=40 / rc=cbr / mbtree=1 / bitrate=3000 / ratetol=1.0 / qcomp=0.60 / qpmin=3 / qpmax=69 / qpstep=4 / vbv_maxrate=3000 / vbv_bufsize=2998 / nal_hrd=cbr / ip_ratio=1.40 / aq=1:1.00
Color range : Limited
Color primaries : BT.709
Transfer characteristics : BT.709
Matrix coefficients : BT.709
Codec configuration box : avcC

Audio
ID : 1
Format : AAC LC
Format/Info : Advanced Audio Codec Low Complexity
Codec ID : mp4a-40-2
Duration : 1 h 6 min
Bit rate mode : Variable
Bit rate : 128 kb/s
Maximum bit rate : 576 kb/s
Channel(s) : 2 channels
Channel layout : L R
Sampling rate : 48.0 kHz
Frame rate : 46.875 FPS (1024 SPF)
Compression mode : Lossy
Stream size : 60.6 MiB (4%)


! AdBlock , )))
 ·  , , FAQ-
:  [ 09--2020 00:50 ]

  

.torrent

.torrent 2 KB


: 1.37 GB
(hash) : cf6cdb6cb95215d5c0399dc1cf3ce45f3dcd29e2
··
...

Maki Yamada - . !

!