Скачать через торрент Хищные птицы: Потрясающая история Харли Квинн Birds of Prey: And the Fantabulous Emancipation of One Harley Quinn Фильм бесплатно в хорошем качестве torrent

Скачивайте на UnionPeer.org фильмы через торрент без регистрации. Новинки кино в хорошем качестве через торрент. На UnionPeer.org можно скачать через торрент фильмы 2014 и 2015 годов. Самые новые фильмы.

Скачать торрент Хищные птицы: Потрясающая история Харли Квинн Birds of Prey: And the Fantabulous Emancipation of One Harley Quinn бесплатно через .torrent фильм мультфильм сериал

Статистика раздачи
Размер:  5.01 GB   |    Зарегистрирован:  29 дней   |    .torrent скачан:  438 раз   |   
Раздают:  4   Качают:  1  
 

Скачать Хищные птицы: Потрясающая история Харли Квинн / Birds of Prey: And the Fantabulous Emancipation of One Harley Quinn (2020) WEBRip 1080p | HDrezka Studio через torrent

 
загрузка...
 
Автор Сообщение

Galfimbul ghost

avatar Galfimbul ghost


Хищные птицы: Потрясающая история Харли Квинн /Birds of Prey: And the Fantabulous Emancipation of One Harley Quinn

Год выхода: 2020
Жанр: Боевик, криминал, комедия
Режиссер: Кэти Янь
В ролях: Марго Робби, Джерни Смоллетт, Мэри Элизабет Уинстэд, Рози Перес, Элла Джей Баско, Юэн Макгрегор, Крис Мессина, Бояна Новакович, Али Вонг, Дэвид Ури

О фильме:
Харли Квинн рассталась с Джокером и через некоторое время сообщила об этом всему Готэму, взорвав тот самый химзавод. Девушка больше не тоскует по несостоявшимся отношениям — ей некогда, так как она также потеряла неприкосновенность, и теперь за ней охотятся разной степени криминализованности граждане, которым она когда-либо наносила вред. А в это время ставший крёстным отцом Готема Роман Сайонис очень жаждет вернуть пропавший бриллиант, который стащила у его подручного малолетняя карманница.

Страна: США
Студия: Clubhouse Pictures (II), DC Entertainment, Kroll & Co. Entertainment
Продолжительность: 01:48:49
Перевод: Профессиональный (многоголосый, закадровый) | HDrezka Studio

Файл
Качество: WEBRip 1080p | HDRezka Studio
Видео: AVC/H.264, 1920x804, ~6285 Кbps, 23.976 fps
Звук:
Аудио 1: AC3, 2 ch, 192 Kbps - Русский
Аудио 2: AC3, 2 ch, 256 Kbps - Английский
Субтитры: Русские (Forced, Full), Английские (Full), Корейский (хардсаб)
Общее
Уникальный идентификатор : 76733194145399356431549920565811566722 (0x39BA468FE795D62A2E862E3B8ABD5882)
Полное имя : Birds of Prey.2020.WEBRip.1080p.W.mkv
Формат : Matroska
Версия формата : Version 4
Размер файла : 5,01 Гбайт
Продолжительность : 1 ч. 48 м.
Общий поток : 6593 Кбит/сек
Название фильма : Birds of Prey.2020.WEBRip.1080p.W
Дата кодирования : UTC 2020-03-11 19:56:38
Программа кодирования : mkvmerge v23.0.0 ('The Bride Said No') 64-bit
Библиотека кодирования : libebml v1.3.6 + libmatroska v1.4.9
Обложка : Yes
Attachments : small_cover.jpg / small_cover_land.jpg / cover.jpg / cover_land.jpg

Видео
Идентификатор : 1
Формат : AVC
Формат/Информация : Advanced Video Codec
Профиль формата : High@L4.1
Настройки формата : CABAC / 5 Ref Frames
Параметр CABAC формата : Да
Параметр RefFrames формата : 5 кадров
Идентификатор кодека : V_MPEG4/ISO/AVC
Продолжительность : 1 ч. 48 м.
Битрейт : 6285 Кбит/сек
Ширина : 1920 пикселей
Высота : 804 пикселя
Соотношение сторон : 2,40:1
Режим частоты кадров : Постоянный
Частота кадров : 23,976 (24000/1001) кадра/сек
Цветовое пространство : YUV
Субдискретизация насыщенности : 4:2:0
Битовая глубина : 8 бит
Тип развёртки : Прогрессивная
Бит/(Пиксели*Кадры) : 0.170
Размер потока : 4,67 Гбайт (93%)
Библиотека кодирования : x264 core 152 r2851 ba24899
Настройки программы : cabac=1 / ref=5 / deblock=1:-3:-3 / analyse=0x3:0x133 / me=umh / subme=9 / psy=1 / psy_rd=1.00:0.00 / mixed_ref=1 / me_range=16 / chroma_me=1 / trellis=2 / 8x8dct=1 / cqm=0 / deadzone=21,11 / fast_pskip=1 / chroma_qp_offset=-2 / threads=18 / lookahead_threads=1 / sliced_threads=0 / nr=0 / decimate=1 / interlaced=0 / bluray_compat=0 / constrained_intra=0 / bframes=3 / b_pyramid=2 / b_adapt=2 / b_bias=0 / direct=3 / weightb=1 / open_gop=0 / weightp=2 / keyint=250 / keyint_min=23 / scenecut=40 / intra_refresh=0 / rc_lookahead=60 / rc=abr / mbtree=1 / bitrate=6285 / ratetol=1.0 / qcomp=0.60 / qpmin=0 / qpmax=69 / qpstep=4 / ip_ratio=1.40 / aq=1:1.00
Язык : English
Default : Да
Forced : Нет

Аудио #1
Идентификатор : 2
Формат : AC-3
Формат/Информация : Audio Coding 3
Коммерческое название : Dolby Digital
Идентификатор кодека : A_AC3
Продолжительность : 1 ч. 48 м.
Вид битрейта : Постоянный
Битрейт : 192 Кбит/сек
Каналы : 2 канала
ChannelLayout : L R
Частота : 48,0 КГц
Частота кадров : 31,250 кадров/сек (1536 SPF)
Метод сжатия : С потерями
Размер потока : 149 Мбайт (3%)
Заголовок : MVO | HDRezka Studio
Язык : Russian
ServiceKind : Complete Main
Default : Да
Forced : Нет

Аудио #2
Идентификатор : 3
Формат : AC-3
Формат/Информация : Audio Coding 3
Коммерческое название : Dolby Digital
Идентификатор кодека : A_AC3
Продолжительность : 1 ч. 48 м.
Вид битрейта : Постоянный
Битрейт : 256 Кбит/сек
Каналы : 2 канала
ChannelLayout : L R
Частота : 48,0 КГц
Частота кадров : 31,250 кадров/сек (1536 SPF)
Метод сжатия : С потерями
Размер потока : 199 Мбайт (4%)
Язык : English
ServiceKind : Complete Main
Default : Нет
Forced : Нет

Текст #1
Идентификатор : 4
Формат : UTF-8
Идентификатор кодека : S_TEXT/UTF8
Идентификатор кодека/Информация : UTF-8 Plain Text
Продолжительность : 1 ч. 32 м.
Битрейт : 1 бит/сек
ElementCount : 22
Размер потока : 1,13 Кбайт (0%)
Заголовок : Forced
Язык : Russian
Default : Да
Forced : Нет

Текст #2
Идентификатор : 5
Формат : UTF-8
Идентификатор кодека : S_TEXT/UTF8
Идентификатор кодека/Информация : UTF-8 Plain Text
Продолжительность : 1 ч. 40 м.
Битрейт : 103 бит/сек
ElementCount : 1249
Размер потока : 76,5 Кбайт (0%)
Заголовок : Full
Язык : Russian
Default : Нет
Forced : Нет

Текст #3
Идентификатор : 6
Формат : UTF-8
Идентификатор кодека : S_TEXT/UTF8
Идентификатор кодека/Информация : UTF-8 Plain Text
Продолжительность : 1 ч. 40 м.
Битрейт : 109 бит/сек
ElementCount : 1262
Размер потока : 80,7 Кбайт (0%)
Заголовок : Colored
Язык : English
Default : Нет
Forced : Нет
Источник http://listRutor.org

Трекер:  [ 12-Мар-2020 00:00 ]

  

Скачать .torrent

Размер .torrent файла 25 KB


Размер: 5.01 GB
Хэш (hash) релиза: 6265e3b878a8e5d1346b2f2fef293698be79a652
Подписка на обновления:

Торренты, похожие на Хищные птицы: Потрясающая история Харли Квинн Birds of Prey: And the Fantabulous Emancipation of One Harley Quinn скачать торрент

Форум Название Автор Размер S L Добавлен
Зарубежные фильмы 2016-2019 (Новинки зарубежного кино) ·%· Хищные птицы: Потрясающая история Харли Квинн / Birds of Prey: And the Fantabulous Emancipation of One Harley Quinn (2020) WEB-DLRip-AVC | iTunes Galfimbul ghost 26515737042.47 GB 0 0 1585826551

14:22

2-Апр-20

Зарубежные фильмы 2016-2019 (Новинки зарубежного кино) ·%· Хищные птицы: Потрясающая история Харли Квинн / Birds of Prey: And the Fantabulous Emancipation of One Harley Quinn (2020) WEB-DLRip от MegaPeer | iTunes Galfimbul ghost 15728203021.46 GB 0 0 1585685424

23:10

31-Мар-20

Зарубежные фильмы 2016-2019 (Новинки зарубежного кино) ·%· Хищные птицы: Потрясающая история Харли Квинн / Birds of Prey: And the Fantabulous Emancipation of One Harley Quinn (2020) UHD WEB-DL 2160p от селезень | 4K | SDR | iTunes Galfimbul ghost 1902402704317.72 GB 3 0 1585685418

23:10

31-Мар-20

Зарубежные фильмы 2016-2019 (Новинки зарубежного кино) ·%· Хищные птицы: Потрясающая история Харли Квинн / Birds of Prey: And the Fantabulous Emancipation of One Harley Quinn (2020) WEB-DL 1080p от селезень | iTunes Galfimbul ghost 85400734657.95 GB 3 1 1585681832

22:10

31-Мар-20

Зарубежные фильмы 2016-2019 (Новинки зарубежного кино) ·%· Хищные птицы: Потрясающая история Харли Квинн / Birds of Prey: And the Fantabulous Emancipation of One Harley Quinn (2020) WEB-DL 720p от селезень | iTunes Galfimbul ghost 48645132994.53 GB 3 0 1585681808

22:10

31-Мар-20

Зарубежные фильмы 2016-2019 (Новинки зарубежного кино) ·%· Хищные птицы: Потрясающая история Харли Квинн / Birds of Prey: And the Fantabulous Emancipation of One Harley Quinn (2020) WEB-DL 1080p от Scarabey | HDrezka Studio Galfimbul ghost 38757907503.61 GB 2 0 1585477212

13:20

29-Мар-20

Зарубежные фильмы 2016-2019 (Новинки зарубежного кино) ·%· Хищные птицы: Потрясающая история Харли Квинн / Birds of Prey: And the Fantabulous Emancipation of One Harley Quinn (2020) WEB-DLRip-AVC | HDrezka Studio Galfimbul ghost 781216365745 MB 0 0 1585158030

20:40

25-Мар-20

Зарубежные фильмы 2016-2019 (Новинки зарубежного кино) ·· Хищные птицы: Потрясающая история Харли Квинн / Birds of Prey: And the Fantabulous Emancipation of One Harley Quinn (2020) UHD BDRip-HEVC 2160p | 4K | SDR | HDRezka Studio Galfimbul ghost 1891919978917.62 GB 3 0 1585132827

13:40

25-Мар-20

Зарубежные фильмы 2016-2019 (Новинки зарубежного кино) ·%· Хищные птицы: Потрясающая история Харли Квинн / Birds of Prey: And the Fantabulous Emancipation of One Harley Quinn (2020) WEB-DL 720p | P Galfimbul ghost 37724707783.51 GB 3 0 1584969640

16:20

23-Мар-20

Зарубежные фильмы 2016-2019 (Новинки зарубежного кино) ·%· Хищные птицы: Потрясающая история Харли Квинн / Birds of Prey: And the Fantabulous Emancipation of One Harley Quinn (2020) WEB-DLRip от MegaPeer | HDrezka Studio Galfimbul ghost 15739290821.47 GB 0 0 1584862234

10:30

22-Мар-20

Зарубежные фильмы 2016-2019 (Новинки зарубежного кино) ·%· Хищные птицы: Потрясающая история Харли Квинн / Birds of Prey: And the Fantabulous Emancipation of One Harley Quinn (2020) WEB-DLRip от Scarabey | HDrezka Studio Galfimbul ghost 15525376001.45 GB 0 0 1584862221

10:30

22-Мар-20

Зарубежные фильмы 2016-2019 (Новинки зарубежного кино) ·· Хищные птицы: Потрясающая история Харли Квинн / Birds of Prey: And the Fantabulous Emancipation of One Harley Quinn (2020) WEBRip 720p | LakeFilms Galfimbul ghost 25652679922.39 GB 0 0 1583923253

13:40

11-Мар-20

Зарубежные фильмы 2016-2019 (Новинки зарубежного кино) ·· Хищные птицы: Потрясающая история Харли Квинн / Birds of Prey: And the Fantabulous Emancipation of One Harley Quinn (2020) WEBRip 1080p | LakeFilms Galfimbul ghost 41121024323.83 GB 0 0 1583923239

13:40

11-Мар-20

Зарубежные фильмы 2016-2019 (Новинки зарубежного кино) ·· Хищные птицы: Потрясающая история Харли Квинн / Birds of Prey: And the Fantabulous Emancipation of One Harley Quinn (2020) WEBRip | LakeFilms Galfimbul ghost 17764271521.65 GB 0 0 1583923226

13:40

11-Мар-20

Еще никто не оставлял запись к записи скачать торрент Хищные птицы: Потрясающая история Харли Квинн Birds of Prey: And the Fantabulous Emancipation of One Harley Quinn . Будь первым!

!Обратная связь