Скачать через торрент Соник в кино Sonic the Hedgehog Фильм бесплатно в хорошем качестве torrent

Скачивайте на UnionPeer.org фильмы через торрент без регистрации. Новинки кино в хорошем качестве через торрент. На UnionPeer.org можно скачать через торрент фильмы 2014 и 2015 годов. Самые новые фильмы.

Скачать торрент Соник в кино Sonic the Hedgehog бесплатно через .torrent фильм мультфильм сериал

Статистика раздачи
Размер:  4.02 GB   |    Зарегистрирован:  29 дней   |    .torrent скачан:  524 раза   |   
Раздают:  6   Качают:  1  
 

Скачать Соник в кино / Sonic the Hedgehog (2020) WEBRip 1080p | HDrezka Studio через torrent

 
загрузка...
 
Автор Сообщение

Galfimbul ghost

avatar Galfimbul ghost


Соник в кино /Sonic the Hedgehog

Год выхода: 2020
Жанр: Фантастика, фэнтези, боевик, приключения, комедия, семейный
Режиссер: Джефф Фаулер
В ролях: Джеймс Марсден, Бен Шварц, Наташа Ротуэлл, Тика Самптер, Нил МакДонаф, Адам Палли, Джим Керри, Майкл Хоган, Ли Мадждуб, Том Батлер, Фрэнк Ч. Тёрнер

О фильме:
Отвязный ярко-синий ёжик Соник вместе с новообретённым лучшим другом-человеком по имени Том знакомится со сложностями жизни на Земле и противостоит злодейскому доктору Роботнику, который хочет пленить Соника и использовать его безграничные суперсилы для завоевания мирового господства.

Страна: США, Япония, Канада
Студия: Paramount Pictures, Sega, Original Film
Продолжительность: 01:39:06
Перевод: Профессиональный (многоголосый, закадровый) | HDrezka Studio

Файл
Качество: WEBRip 1080p | HDrezka Studio
Видео: AVC/H.264, 1920x1080, ~5359 Кbps, 23.976 fps
Звук:
Аудио 1: AC3, 2 ch, 192 Kbps - Русский
Аудио 2: AC3, 2 ch, 256 Kbps - Английский
Субтитры: Отсутствуют
Общее
Уникальный идентификатор : 290514822785023503594211238227494646413 (0xDA8F1EA1512A05E9BEDF6129AA35328D)
Полное имя : Sonic the Hedgehog.2020.WEB.1080p.W.mkv
Формат : Matroska
Версия формата : Version 4
Размер файла : 4,02 Гбайт
Продолжительность : 1 ч. 39 м.
Общий поток : 5809 Кбит/сек
Название фильма : Sonic the Hedgehog.2020.WEB.1080p.W
Дата кодирования : UTC 2020-03-11 20:07:06
Программа кодирования : mkvmerge v23.0.0 ('The Bride Said No') 64-bit
Библиотека кодирования : libebml v1.3.6 + libmatroska v1.4.9

Видео
Идентификатор : 1
Формат : AVC
Формат/Информация : Advanced Video Codec
Профиль формата : High@L4
Настройки формата : CABAC / 2 Ref Frames
Параметр CABAC формата : Да
Параметр RefFrames формата : 2 кадра
Идентификатор кодека : V_MPEG4/ISO/AVC
Продолжительность : 1 ч. 39 м.
Битрейт : 5359 Кбит/сек
Ширина : 1920 пикселей
Высота : 1080 пикселей
Соотношение сторон : 16:9
Режим частоты кадров : Постоянный
Частота кадров : 23,976 (24000/1001) кадра/сек
Цветовое пространство : YUV
Субдискретизация насыщенности : 4:2:0
Битовая глубина : 8 бит
Тип развёртки : Прогрессивная
Бит/(Пиксели*Кадры) : 0.108
Размер потока : 3,71 Гбайт (92%)
Библиотека кодирования : x264 core 155 r2901 7d0ff22
Язык : English
Default : Да
Forced : Нет
Цветовой диапазон : Limited
Основные цвета : BT.709
Характеристики трансфера : BT.709
Коэффициенты матрицы : BT.709

Аудио #1
Идентификатор : 2
Формат : AC-3
Формат/Информация : Audio Coding 3
Коммерческое название : Dolby Digital
Идентификатор кодека : A_AC3
Продолжительность : 1 ч. 39 м.
Вид битрейта : Постоянный
Битрейт : 192 Кбит/сек
Каналы : 2 канала
ChannelLayout : L R
Частота : 48,0 КГц
Частота кадров : 31,250 кадров/сек (1536 SPF)
Метод сжатия : С потерями
Размер потока : 136 Мбайт (3%)
Заголовок : MVO | HDRezka Studio
Язык : Russian
ServiceKind : Complete Main
Default : Да
Forced : Нет

Аудио #2
Идентификатор : 3
Формат : AC-3
Формат/Информация : Audio Coding 3
Коммерческое название : Dolby Digital
Идентификатор кодека : A_AC3
Продолжительность : 1 ч. 39 м.
Вид битрейта : Постоянный
Битрейт : 256 Кбит/сек
Каналы : 2 канала
ChannelLayout : L R
Частота : 48,0 КГц
Частота кадров : 31,250 кадров/сек (1536 SPF)
Метод сжатия : С потерями
Размер потока : 181 Мбайт (4%)
Язык : English
ServiceKind : Complete Main
Default : Нет
Forced : Нет
Источник http://listRutor.org

Трекер:  [ 12-Мар-2020 00:20 ]

  

Скачать .torrent

Размер .torrent файла 20 KB


Размер: 4.02 GB
Хэш (hash) релиза: c60d25e2712719a68d99c7d25d7f443832e01b15
Подписка на обновления:

Торренты, похожие на Соник в кино Sonic the Hedgehog скачать торрент

Форум Название Автор Размер S L Добавлен
Зарубежные фильмы 2016-2019 (Новинки зарубежного кино) ·%· Соник в кино / Sonic the Hedgehog (2020) WEB-DL 720p от Scarabey | HDRezka Studio Galfimbul ghost 26419637792.46 GB 2 0 1586365210

20:00

8-Апр-20

Зарубежные фильмы 2016-2019 (Новинки зарубежного кино) ·%· Соник в кино / Sonic the Hedgehog (2020) WEB-DLRip-AVC от ExKinoRay | HDRezka Studio Galfimbul ghost 782618215746 MB 0 0 1585936842

21:00

3-Апр-20

Зарубежные фильмы 2016-2019 (Новинки зарубежного кино) ·%· Соник в кино / Sonic the Hedgehog (2020) WEB-DLRip | Line Galfimbul ghost 15638460521.46 GB 0 0 1585759811

19:50

1-Апр-20

Зарубежные фильмы 2016-2019 (Новинки зарубежного кино) ·%· Соник в кино / Sonic the Hedgehog (2020) WEB-DL 1080p | Line Galfimbul ghost 57903856465.39 GB 2 0 1585752608

17:50

1-Апр-20

Зарубежные фильмы 2016-2019 (Новинки зарубежного кино) ·%· Соник в кино / Sonic the Hedgehog (2020) WEB-DL 1080p | P Galfimbul ghost 59329350465.53 GB 0 0 1585660815

16:20

31-Мар-20

Зарубежные фильмы 2016-2019 (Новинки зарубежного кино) ·%· Соник в кино / Sonic the Hedgehog (2020) WEB-DL 1080p | HDRezka Studio Galfimbul ghost 37982118653.54 GB 0 0 1585651209

13:40

31-Мар-20

Зарубежные фильмы 2016-2019 (Новинки зарубежного кино) ·· Соник в кино / Sonic the Hedgehog (2020) WEB-DLRip от Scarabey | HDRezka Studio Galfimbul ghost 15523143681.45 GB 0 0 1584122453

21:00

13-Мар-20

Зарубежные фильмы 2016-2019 (Новинки зарубежного кино) ·· Соник в кино / Sonic the Hedgehog (2020) WEBRip-AVC | HDrezka Studio Galfimbul ghost 777262928741 MB 0 0 1584016816

15:40

12-Мар-20

Еще никто не оставлял запись к записи скачать торрент Соник в кино Sonic the Hedgehog . Будь первым!

!Обратная связь