Скачать порно через торрент Little Monica Monogatari The Story of Little Monica UnionPeer.org бесплатно онлайн HD качество

Скачать новое порно 2015, 2014 новинки через торрент UnionPeer.org

Порно торрент бесплатно ЮнионПир.орг

Статистика раздачи
Размер:  17.82 GB   |    Зарегистрирован:  3 года 11 месяцев   |    .torrent скачан:  173 раза   |   
Раздают:  1   Качают:  1  
   
 
Автор Сообщение

Galfimbul

avatar Galfimbul


Little Monica Monogatari
リトルモニカ物語
The Story of Little Monica
История маленькой Моники


Год выпуска: 2002
Жанр: fantasy, romance, neko, waitress, oral, toys, group
Серии: ep. 1-2 of 2
Продолжительность: 2*30mn
Цензура: Отсутствует

Озвучка: Японская оригинальная
Озвучка: Английская профессиональная (полное дублирование) встроенная
Субтитры: Русские [redbull] внешние SRT
Субтитры: Английские встроенные BGS

Режиссер: Satsumaya Jouki
Автор оригинала: Rune
Студия: Y.O.U.C., Digital Works, Vanilla

Описание: Уилл, выпускник колледжа, возвращается на родину, в городишко Литтл Моника. Его с нетерпением ждет подруга детства, очаровательная Селия. Но еще на пароходе, везущем его в Монику, Уилл знакомится с неотразимой Мяу – нэкой-стриптизершей, так что свидание с подружкой несколько откладывается. Да и родной город Уилла сильно изменился, и прежде, чем наводить мосты и восстанавливать старинные связи, ему хочется разобраться с причиной этих неприятных перемен...

anidb

Доп. информация: БД выложили LegitRips, большое им за это спасибо.

Качество видео: Blu-Ray
Формат видео: BD Video
Видео: AVC, 1920-1080, 16-9 (4-3 с чёрными полосами по бокам), 23.976 fps, 35 mbps
Аудио 1: jap, PCM, Stereo, 48.0 KHz, 1536 Kbps
Аудио 2: eng, PCM, Stereo, 48.0 KHz, 1536 Kbps

General
ID : 0 (0x0)
Complete name : 00001.m2ts
Format : BDAV
Format/Info : Blu-ray Video
File size : 8.31 GiB
Duration : 30 min 4 s
Overall bit rate mode : Variable
Overall bit rate : 39.6 Mb/s
Maximum Overall bit rate : 48.0 Mb/s

Video
ID : 4113 (0x1011)
Menu ID : 1 (0x1)
Format : AVC
Format/Info : Advanced Video Codec
Format profile : [email protected]
Format settings : CABAC / 3 Ref Frames
Format settings, CABAC : Yes
Format settings, RefFrames : 3 frames
Codec ID : 27
Duration : 30 min 4 s
Bit rate mode : Variable
Bit rate : 35.0 Mb/s
Width : 1 920 pixels
Height : 1 080 pixels
Display aspect ratio : 16:9
Frame rate : 23.976 (24000/1001) FPS
Color space : YUV
Chroma subsampling : 4:2:0
Bit depth : 8 bits
Scan type : Progressive
Bits/(Pixel*Frame) : 0.704
Stream size : 7.33 GiB (88%)
Writing library : x264 core 157 r2935 545de2f
Encoding settings : cabac=1 / ref=4 / deblock=1:0:0 / analyse=0x3:0x133 / me=umh / subme=10 / psy=1 / psy_rd=1.00:0.00 / mixed_ref=1 / me_range=24 / chroma_me=1 / trellis=2 / 8x8dct=1 / cqm=0 / deadzone=21,11 / fast_pskip=1 / chroma_qp_offset=-2 / threads=34 / lookahead_threads=2 / sliced_threads=0 / slices=4 / nr=0 / decimate=1 / interlaced=0 / bluray_compat=1 / constrained_intra=0 / bframes=3 / b_pyramid=1 / b_adapt=2 / b_bias=0 / direct=3 / weightb=1 / open_gop=1 / weightp=1 / keyint=23 / keyint_min=1 / scenecut=40 / intra_refresh=0 / rc_lookahead=23 / rc=2pass / mbtree=1 / bitrate=34999 / ratetol=1.0 / qcomp=0.50 / qpmin=0 / qpmax=69 / qpstep=4 / cplxblur=20.0 / qblur=0.5 / vbv_maxrate=34999 / vbv_bufsize=27999 / nal_hrd=vbr / filler=0 / ip_ratio=1.40 / aq=1:1.00
Color range : Limited
Color primaries : BT.709
Transfer characteristics : BT.709
Matrix coefficients : BT.709

Audio #1
ID : 4352 (0x1100)
Menu ID : 1 (0x1)
Format : PCM
Format settings : Big / Signed
Muxing mode : Blu-ray
Codec ID : 128
Duration : 30 min 4 s
Bit rate mode : Constant
Bit rate : 1 536 kb/s
Channel(s) : 2 channels
Channel layout : L R
Sampling rate : 48.0 kHz
Bit depth : 16 bits
Stream size : 330 MiB (4%)

Audio #2
ID : 4353 (0x1101)
Menu ID : 1 (0x1)
Format : PCM
Format settings : Big / Signed
Muxing mode : Blu-ray
Codec ID : 128
Duration : 30 min 4 s
Bit rate mode : Constant
Bit rate : 1 536 kb/s
Channel(s) : 2 channels
Channel layout : L R
Sampling rate : 48.0 kHz
Bit depth : 16 bits
Stream size : 330 MiB (4%)

Text #1
ID : 4608 (0x1200)
Menu ID : 1 (0x1)
Format : PGS
Codec ID : 144
Delay relative to video : 7 s 507 ms

Text #2
ID : 4609 (0x1201)
Menu ID : 1 (0x1)
Format : PGS
Codec ID : 144


Внимание! AdBlock блокирует показ скриншотов, все вопросы к разработчикам )))
Трекер:  [ 14-Мар-2020 01:23 ]

  

Скачать .torrent

Размер .torrent файла 95 KB


Размер: 17.82 GB
Хэш (hash) релиза: badd93db7161c112c748645e67326338308185a0

Торренты, похожие на Little Monica Monogatari The Story of Little Monica скачать торрент

Форум Название Автор Размер S L Добавлен
Хентай: основной подраздел / Hentai: main subsection ·?· Little Monica Monogatari / The Story of Little Monica / История маленькой Моники (ep. 1-2 of 2) (Satsumaya Jouki, Y.O.U.C., Digital Works, Vanilla, Kitty Media) [uncen] [2002, fantasy, romance, neko, waitress, oral, toys, group, BDRip] [jap / rus / e Galfimbul 26001313622.42 GB 0 0 1585433407

01:10

29-Мар-20

Еще никто не оставлял запись к записи скачать торрент Little Monica Monogatari The Story of Little Monica . Будь первым!

!Обратная связь