Скачать через торрент Планета Марс Planet Mars Фильм бесплатно в хорошем качестве torrent

Скачивайте на UnionPeer.org фильмы через торрент без регистрации. Новинки кино в хорошем качестве через торрент. На UnionPeer.org можно скачать через торрент фильмы 2014 и 2015 годов. Самые новые фильмы.

Скачать торрент Планета Марс Planet Mars бесплатно через .torrent фильм мультфильм сериал

Статистика раздачи
Размер:  107 MB   |    Зарегистрирован:  21 день   |    .torrent скачан:  60 раз   |   
Раздают:  2  
 

Скачать Планета Марс / Planet Mars (2019) WEBRip 2160p | 4K | L1 через torrent

 
загрузка...
 
Автор Сообщение

Galfimbul ghost

avatar Galfimbul ghost


Планета Марс /Planet Mars

Год выхода: 2019
Жанр: короткометражка, приключения, комедия
Режиссер: Себастьян Кудер
В ролях: Катерина Захарис, Николя Гонзалес

О фильме:
На Марсе была жизнь, но люди уничтожили её, даже не заметив.

Страна: США
Продолжительность: 00:02:51
Перевод: Любительский одноголосый (Kortez)

Файл
Кодек: VP9
Качество: WEBRip 2160p
Видео: 3840x1600, 2.4:1, 24fps, 4908 Кбит/с
Звук:
Оригинал (английский): AAC, 44,1 КГц, 128 Кбит/с, стерео
Русский: MP3, 48,0 КГц, 208 Кбит/с, стерео
Субтитры: русские [Mr.Faer], английские
Общее
Уникальный идентификатор : 252403170093984578227108625477658785570 (0xBDE31513DB1C330053396DE99454B722)
Полное имя : F:Фильмы и сериалыPlanet Mars v2.mkv
Формат : Matroska
Версия формата : Version 4
Размер файла : 107 Мбайт
Продолжительность : 2 м. 51 с.
Режим общего битрейта : Переменный
Общий поток : 5246 Кбит/сек
Дата кодирования : UTC 2020-02-25 06:33:44
Программа кодирования : mkvmerge v25.0.0 ('Prog Noir') 64-bit
Библиотека кодирования : libebml v1.3.6 + libmatroska v1.4.9

Видео
Идентификатор : 1
Формат : VP9
Идентификатор кодека : V_VP9
Продолжительность : 2 м. 51 с.
Битрейт : 4908 Кбит/сек
Ширина : 3840 пикселей
Высота : 1600 пикселей
Соотношение сторон : 2,40:1
Режим частоты кадров : Постоянный
Частота кадров : 24,000 кадра/сек
Цветовое пространство : YUV
Бит/(Пиксели*Кадры) : 0.033
Размер потока : 100 Мбайт (94%)
Язык : English
Default : Да
Forced : Нет
Цветовой диапазон : Limited
Основные цвета : BT.709
Характеристики трансфера : BT.709
Коэффициенты матрицы : BT.709

Аудио #1
Идентификатор : 2
Формат : MPEG Audio
Версия формата : Version 1
Профиль формата : Layer 3
Идентификатор кодека : A_MPEG/L3
Идентификатор кодека/Подсказка : MP3
Продолжительность : 2 м. 51 с.
Вид битрейта : Переменный
Битрейт : 208 Кбит/сек
Каналы : 2 канала
Частота : 48,0 КГц
Частота кадров : 41,667 кадра/сек (1152 SPF)
Метод сжатия : С потерями
Размер потока : 4,24 Мбайт (4%)
Язык : Russian
Default : Да
Forced : Нет

Аудио #2
Идентификатор : 4
Формат : AAC LC
Формат/Информация : Advanced Audio Codec Low Complexity
Идентификатор кодека : A_AAC-2
Продолжительность : 2 м. 51 с.
Битрейт : 128 Кбит/сек
Каналы : 2 канала
ChannelLayout : L R
Частота : 44,1 КГц
Частота кадров : 43,066 кадра/сек (1024 SPF)
Метод сжатия : С потерями
Размер потока : 2,61 Мбайт (2%)
Язык : English
Default : Нет
Forced : Нет

Текст #1
Идентификатор : 3
Формат : UTF-8
Идентификатор кодека : S_TEXT/UTF8
Идентификатор кодека/Информация : UTF-8 Plain Text
Продолжительность : 2 м. 15 с.
Битрейт : 138 бит/сек
ElementCount : 27
Размер потока : 2,28 Кбайт (0%)
Язык : Russian
Default : Да
Forced : Нет

Текст #2
Идентификатор : 5
Формат : UTF-8
Идентификатор кодека : S_TEXT/UTF8
Идентификатор кодека/Информация : UTF-8 Plain Text
Продолжительность : 1 м. 56 с.
Битрейт : 78 бит/сек
ElementCount : 24
Размер потока : 1,11 Кбайт (0%)
Язык : English
Default : Нет
Forced : Нет
Источник http://listRutor.org

Трекер:  [ 17-Мар-2020 13:30 ]

  

Скачать .torrent

Размер .torrent файла 17 KB


Размер: 107 MB
Хэш (hash) релиза: c4f21a393806c472d7e8dffc6bf60bf5c7dc6d51
Подписка на обновления:

Торренты, похожие на Планета Марс Planet Mars скачать торрент

Форум Название Автор Размер S L Добавлен
Зарубежные фильмы 2016-2019 (Новинки зарубежного кино) ·· Новости с планеты Марс / News from Planet Mars / Des nouvelles de la planète Mars (Доминик Молль / Dominik Moll) [2016, Франция, Бельгия, комедия, WEB-DLRip] Dub Galfimbul ghost 15975751681.49 GB 0 0 1473172491

17:34

6-Сен-16

Зарубежные фильмы 2016-2019 (Новинки зарубежного кино) ·· Новости с планеты Марс / News from Planet Mars / Des nouvelles de la planète Mars (Доминик Молль / Dominik Moll) [2016, Франция, Бельгия, комедия, WEB-DLRip] Dub Galfimbul ghost 781004800745 MB 0 0 1472900008

13:53

3-Сен-16

Документальные фильмы и телепередачи ·· Человек на Марсе. Экспедиция на красную планету / Man on Mars: Mission to the Red Planet (Алекс Хирл / Alex Hearle) [2014, документальный, космос, HDTV 1080i] BBC Galfimbul ghost 22010171442.05 GB 0 0 1461391418

09:03

23-Апр-16

Документальные фильмы и телепередачи ·· Путешествие по планетам : Марс / A traveler's guide to the planets : Mars (National Geographic Television) [2010 г., Документальный, научно-популярный, SATRip] L 599238656571 MB 0 0 1295328851

08:34

18-Янв-11

Еще никто не оставлял запись к записи скачать торрент Планета Марс Planet Mars . Будь первым!

!Обратная связь