Скачать через торрент Притяжение Фильм бесплатно в хорошем качестве torrent

Скачивайте на UnionPeer.org фильмы через торрент без регистрации. Новинки кино в хорошем качестве через торрент. На UnionPeer.org можно скачать через торрент фильмы 2014 и 2015 годов. Самые новые фильмы.

Скачать торрент Притяжение бесплатно через .torrent фильм мультфильм сериал

Статистика раздачи
Размер:  8.88 GB   |    Зарегистрирован:  22 дня   |    .torrent скачан:  19 раз   |   
Раздают:  1  
 

Скачать Притяжение (2017) BDRip-HEVC 1080p от HEVC-CLUB | Лицензия через torrent

 
загрузка...
 
Автор Сообщение

Galfimbul ghost

avatar Galfimbul ghost


Притяжение

Год выхода: 2017
Страна: Россия
Студия: Кинокомпания «Водород», Art Pictures Studio
Жанр: Фантастика
Продолжительность: 02:12:31

Режиссер: Фёдор Бондарчук
В ролях: Ирина Старшенбаум, Александр Петров, Риналь Мухаметов, Олег Меньшиков, Евгений Сангаджиев, Алексей Маслодудов, Никита Кукушкин, Евгений Михеев, Антон Шпиньков, Евгений Коряковский

Описание: Как только что стало известно, сбитый над Москвой неопознанный объект имеет, возможно, внеземное происхождение. Большая часть столичного Чертанова оцеплена, к месту крушения стягиваются представители силовых структур, решается вопрос об эвакуации местных жителей. По словам нашего источника в Минобороны, сейчас специальная комиссия пытается вступить в контакт с так называемыми «гостями». В эти минуты мы готовим экстренный выпуск новостей и о развитии событий вы узнаете первыми…

Качество: BDRip-HEVC 1080p
Видео: HEVC/x.265, 1920x804, ~8948 Kbps, 10 bit
Аудио 01: AC3, 6 ch, 640 Kbps - Русский, Оригинал
Субтитры: Отсутствуют
Навигация по главам: Есть
x265 info: frame I: 2514, Avg QP:17.22 kb/s: 29139.68
x265 info: frame P: 39310, Avg QP:18.25 kb/s: 14445.36
x265 info: frame B: 149019, Avg QP:20.51 kb/s: 7156.49
x265 info: Weighted P-Frames: Y:8.2% UV:6.5%
x265 info: consecutive B-frames: 10.8% 7.4% 8.8% 24.7% 11.7% 24.8% 5.5% 1.9% 2.4% 0.3% 0.5% 0.8% 0.3%
x265 info: encoded 190843 frames in 201172.64s (0.95 fps), 8947.44 kb/s, Avg QP:20.00

Формат : Matroska
Версия формата : Version 4
Размер файла : 8,88 Гбайт
Продолжительность : 2 ч. 12 м.
Общий поток : 9590 Кбит/сек
Название фильма : Притяжение (2017)
Дата кодирования : UTC 2020-03-18 19:49:05
Программа кодирования : mkvmerge v44.0.0 ('Domino') 64-bit
Библиотека кодирования : libebml v1.3.10 + libmatroska v1.5.2
Обложка : Yes
Attachments : cover01.jpg

Видео
Идентификатор : 1
Формат : HEVC
Формат/Информация : High Efficiency Video Coding
Профиль формата : Main 10@L4.1@High
Идентификатор кодека : V_MPEGH/ISO/HEVC
Продолжительность : 2 ч. 12 м.
Битрейт : 8948 Кбит/сек
Ширина : 1920 пикселей
Высота : 804 пикселя
Соотношение сторон : 2,40:1
Режим частоты кадров : Постоянный
Частота кадров : 24,000 кадра/сек
Цветовое пространство : YUV
Субдискретизация насыщенности : 4:2:0
Битовая глубина : 10 бит
Бит/(Пиксели*Кадры) : 0.242
Размер потока : 8,28 Гбайт (93%)
Библиотека кодирования : x265 3.2+5-354901970679:[Windows][clang 8.0.1][64 bit] 10bit
Настройки программы : cpuid=1049583 / frame-threads=5 / numa-pools=4 / wpp / no-pmode / no-pme / no-psnr / no-ssim / log-level=3 / input-csp=1 / input-res=1920x804 / interlace=0 / total-frames=0 / level-idc=41 / high-tier=1 / uhd-bd=0 / ref=5 / allow-non-conformance / no-repeat-headers / annexb / no-aud / no-hrd / info / hash=0 / no-temporal-layers / open-gop / min-keyint=24 / keyint=240 / gop-lookahead=0 / bframes=12 / b-adapt=2 / b-pyramid / bframe-bias=0 / rc-lookahead=40 / lookahead-slices=5 / scenecut=40 / radl=0 / no-splice / no-intra-refresh / ctu=32 / min-cu-size=8 / rect / no-amp / max-tu-size=32 / tu-inter-depth=4 / tu-intra-depth=4 / limit-tu=1 / rdoq-level=1 / dynamic-rd=0.00 / no-ssim-rd / signhide / no-tskip / nr-intra=0 / nr-inter=0 / no-constrained-intra / no-strong-intra-smoothing / max-merge=5 / limit-refs=1 / no-limit-modes / me=3 / subme=7 / merange=57 / temporal-mvp / no-frame-dup / no-hme / weightp / no-weightb / no-analyze-src-pics / deblock=-3:-3 / no-sao / no-sao-non-deblock / rd=4 / selective-sao=0 / early-skip / no-rskip / no-fast-intra / no-tskip-fast / no-cu-lossless / b-intra / no-splitrd-skip / rdpenalty=0 / psy-rd=2.00 / psy-rdoq=1.00 / no-rd-refine / no-lossless / cbqpoffs=0 / crqpoffs=0 / rc=crf / crf=21.0 / qcomp=0.65 / qpstep=4 / stats-write=0 / stats-read=0 / vbv-maxrate=50000 / vbv-bufsize=50000 / vbv-init=0.9 / crf-max=0.0 / crf-min=0.0 / ipratio=1.40 / pbratio=1.30 / aq-mode=3 / aq-strength=1.00 / no-cutree / zone-count=0 / no-strict-cbr / qg-size=32 / no-rc-grain / qpmax=69 / qpmin=0 / no-const-vbv / sar=1 / overscan=0 / videoformat=5 / range=0 / colorprim=1 / transfer=1 / colormatrix=1 / chromaloc=0 / display-window=0 / cll=0,0 / min-luma=0 / max-luma=1023 / log2-max-poc-lsb=8 / vui-timing-info / vui-hrd-info / slices=1 / no-opt-qp-pps / no-opt-ref-list-length-pps / no-multi-pass-opt-rps / scenecut-bias=0.05 / no-opt-cu-delta-qp / no-aq-motion / no-hdr / no-hdr-opt / no-dhdr10-opt / no-idr-recovery-sei / analysis-reuse-level=5 / scale-factor=0 / refine-intra=0 / refine-inter=0 / refine-mv=1 / refine-ctu-distortion=0 / no-limit-sao / ctu-info=0 / no-lowpass-dct / refine-analysis-type=0 / copy-pic=1 / max-ausize-factor=1.0 / no-dynamic-refine / no-single-sei / no-hevc-aq / no-svt / no-field / qp-adaptation-range=1.00
Язык : Russian
Default : Да
Forced : Нет
Цветовой диапазон : Limited
Основные цвета : BT.709
Характеристики трансфера : BT.709
Коэффициенты матрицы : BT.709

Аудио
Идентификатор : 2
Формат : AC-3
Формат/Информация : Audio Coding 3
Коммерческое название : Dolby Digital
Идентификатор кодека : A_AC3
Продолжительность : 2 ч. 12 м.
Вид битрейта : Постоянный
Битрейт : 640 Кбит/сек
Каналы : 6 каналов
ChannelLayout : L R C LFE Ls Rs
Частота : 48,0 КГц
Частота кадров : 31,250 кадров/сек (1536 SPF)
Битовая глубина : 16 бит
Метод сжатия : С потерями
Размер потока : 607 Мбайт (7%)
Язык : Russian
Default : Да
Forced : Нет

Меню
00:00:00.000 : :Chapter 01
00:10:03.708 : :Chapter 02
00:23:20.208 : :Chapter 03
00:29:36.458 : :Chapter 04
00:42:24.416 : :Chapter 05
00:50:32.000 : :Chapter 06
01:02:20.500 : :Chapter 07
01:14:38.791 : :Chapter 08
01:23:25.291 : :Chapter 09
01:37:06.583 : :Chapter 10
01:46:10.125 : :Chapter 11
01:55:38.500 : :Chapter 12
02:12:31.791 : :Chapter 13
Источник http://listRutor.org

Трекер:  [ 18-Мар-2020 23:10 ]

  

Скачать .torrent

Размер .torrent файла 22 KB


Размер: 8.88 GB
Хэш (hash) релиза: 20ff34e4aa685fb44bdea51e47047e73d02881ea
Подписка на обновления:

Торренты, похожие на Притяжение скачать торрент

Форум Название Автор Размер S L Добавлен
Российские фильмы 2016-2020 (Новинки русского кино) ·%· Притяжение (2017) BDRip 720р от k.e.n & nnmclub | Лицензия Galfimbul ghost 46953838924.37 GB 0 0 1549341010

07:30

5-Фев-19

3D Фильмы, кино ·· Притяжение в 3Д / Attraction 3D (Фёдор Бондарчук) [2017, Фантастика, BDrip] Half OverUnder / Вертикальная анаморфная стереопара Galfimbul ghost 1360498831212.67 GB 0 0 1511276783

18:06

21-Ноя-17

3D Фильмы, кино ·· Притяжение в 3Д / 3D (Фёдор Бондарчук) [2017, фантастика, Blu-Ray Disc, 1080p] [GER] BD3D Galfimbul ghost 4760279449644.33 GB 0 0 1511274862

17:34

21-Ноя-17

3D Фильмы, кино ·· Притяжение в 3Д / Attraction 3D (Фёдор Бондарчук) [2017, Фантастика, BDrip, 1080p] OverUnder / Вертикальная стереопара Galfimbul ghost 1919978575717.88 GB 0 0 1511274852

17:34

21-Ноя-17

Зарубежные фильмы 2016-2019 (Новинки зарубежного кино) ·· Взаимное притяжение / Jazbaa (Санджай Гупта) [2015, боевик, триллер, драма, криминал, HDRip] Galfimbul ghost 23504280082.19 GB 0 0 1499235027

09:10

5-Июл-17

Российские фильмы до 2016 ·· Притяжение (Фёдор Бондарчук) [2017, Россия, фантастика, BDRip 1080p] + Original Rus Galfimbul ghost 1447388140613.48 GB 0 0 1492622658

20:24

19-Апр-17

Российские фильмы до 2016 ·· Притяжение (Фёдор Бондарчук) [2017, Россия, фантастика, BDRip 720p] + Original Rus Galfimbul ghost 80190392717.47 GB 0 0 1492610438

17:00

19-Апр-17

Российские фильмы до 2016 ·· Притяжение (Фёдор Бондарчук) [2017, фантастика, BDRip-AVC] Galfimbul ghost 30511752822.84 GB 2 0 1492600383

14:13

19-Апр-17

Российские фильмы до 2016 ·· Притяжение (Фёдор Бондарчук) [2017, Фантастика, BDRip] Galfimbul ghost 15653396481.46 GB 0 0 1492593137

12:12

19-Апр-17

Российские фильмы до 2016 ·· Притяжение (Фёдор Бондарчук) [2017, Россия, фантастика, Blu-ray disc 1080p] (RUS) + Original Rus Galfimbul ghost 2343297246021.82 GB 0 0 1492523632

16:53

18-Апр-17

Российские фильмы 2016-2020 (Новинки русского кино) ·· Притяжение (Фёдор Бондарчук) [2017, Фантастика, Blu-Ray 1080р] Лицензия Galfimbul ghost 2343297246021.82 GB 0 0 1492523030

16:43

18-Апр-17

Российские фильмы до 2016 ·· Притяжение (Фёдор Бондарчук) [2017, Россия, фантастика, WEB-DL 1080p] (iTunes) + Original Rus Galfimbul ghost 49428249064.6 GB 0 0 1488886149

14:29

7-Мар-17

Российские фильмы до 2016 ·· Притяжение (Фёдор Бондарчук) [2017, фантастика, WEB-DLRip-AVC] Galfimbul ghost 16543729491.54 GB 0 0 1488242049

03:34

28-Фев-17

Российские фильмы 2016-2020 (Новинки русского кино) ·· Притяжение (Фёдор Бондарчук) [2017, Фантастика, WEB-DLRip] Galfimbul ghost 15663042561.46 GB 0 0 1488228389

23:46

27-Фев-17

Российские фильмы 2016-2020 (Новинки русского кино) ·· Притяжение (Фёдор Бондарчук) [2017, Фантастика, TeleSynch *PROPER*] Galfimbul ghost 36657686653.41 GB 0 0 1486968691

09:51

13-Фев-17

Российские фильмы 2016-2020 (Новинки русского кино) ·· Притяжение (Фёдор Бондарчук) [2017 г., Фантастика, TS-AVC] Galfimbul ghost 15712404911.46 GB 0 0 1485535367

19:42

27-Янв-17

Российские фильмы 2016-2020 (Новинки русского кино) ·· Притяжение (Фёдор Бондарчук) [2017, Фантастика, CAMRip] Galfimbul ghost 22047252482.05 GB 0 0 1485491962

07:39

27-Янв-17

Российские фильмы 2016-2020 (Новинки русского кино) ·· Притяжение (Фёдор Бондарчук) [2017, Фантастика, TS] Galfimbul ghost 14672220161.37 GB 0 0 1485473044

02:24

27-Янв-17

Документальные фильмы и телепередачи ·· Лиля Брик. Максимальное притяжение (Валерий Рокотов) [2007, Россия, документальный, биографический, SATRip-AVC] Galfimbul ghost 781226655745 MB 0 0 1483641307

21:35

5-Янв-17

Еще никто не оставлял запись к записи скачать торрент Притяжение . Будь первым!

!Обратная связь