Скачать через торрент Playmobil фильм: Через вселенные Playmobil: The Movie Фильм бесплатно в хорошем качестве torrent

Скачивайте на UnionPeer.org фильмы через торрент без регистрации. Новинки кино в хорошем качестве через торрент. На UnionPeer.org можно скачать через торрент фильмы 2014 и 2015 годов. Самые новые фильмы.

Скачать торрент Playmobil фильм: Через вселенные Playmobil: The Movie бесплатно через .torrent фильм мультфильм сериал

Статистика раздачи
Размер:  17.08 GB   |    Зарегистрирован:  16 дней   |    .torrent скачан:  4 раза   |   
Раздают:  1  
 

Скачать Playmobil фильм: Через вселенные / Playmobil: The Movie (2019) BDRemux 1080p от селезень | iTunes через torrent

 
загрузка...
 
Автор Сообщение

Galfimbul ghost

avatar Galfimbul ghost


Playmobil фильм: Через вселенные /Playmobil: The Movie

Год выхода: 2019
Жанр: Мультфильм, фэнтези, комедия, приключения, семейный
Режиссер: Лино ДиСальво
В ролях: Дино Андраде, Гэбриел Бейтман, Йен Джеймс Корлетт, Лино ДиСальво, Бен Дискин, Джим Гэффиган, Келлен Гофф, Уилсон Оксенкнехт, Райан С. Хилл, Пол Гурвиц



О фильме: Чарли неожиданно попадает в волшебную вселенную PLAYMOBIL®. Обеспокоенная внезапным исчезновением брата, старшая сестра Марла отважно отправляется на его поиски.Марлу ждет фантастическое путешествие по удивительным новым мирам. По пути она познакомится и подружится с невероятными героями. Среди них Дел, оптимистичный и неугомонный водитель передвижной закусочной; Рекс Дашер, неудержимый и самовлюбленный секретный агент; чуткий и преданный робот; добрая, но своенравная фея и многие другие. Невероятные приключения помогают Марле и Чарли понять, что, невзирая на любые сложности, главное - всегда верить в себя. И тогда даже невозможное станет возможным!

Страна: Франция, Германия
Студия: ON Animation Studios, On Entertainment
Продолжительность: 01:39:21
Перевод: Дублированный | iTunes

Качество: BDRemux 1080p
Видео: VC-1, 1920x1080, 22.3 Kbit/s, 23.976 fps
Аудио #01: 48 kHz, AC3, 5.1, 384 Kbps | iTunes | RUS |
Аудио #02: 48 kHz, DTS-HD MA, 5.1, 1931 Kbps | Оригинал | ENG |
Субтитры: Английские

General
Unique ID : 187007643670497091439642039832340319094 (0x8CB05CB11B441CE0B156C94F1AA7CB76)
Complete name : E:Video111Playmobil.The.Movie.2019.BDREMUX.1080p.seleZen.mkv
Format : Matroska
Format version : Version 4
File size : 17.1 GiB
Duration : 1 h 39 min
Overall bit rate mode : Variable
Overall bit rate : 24.6 Mb/s
Movie name : Playmobil The Movie 2019 from селезень
Encoded date : UTC 2020-03-22 10:49:58
Writing application : mkvmerge v40.0.0 ('Old Town Road + Pony') 64-bit
Writing library : libebml v1.3.9 + libmatroska v1.5.2

Video
ID : 1
Format : VC-1
Format profile : Advanced@L3
Codec ID : V_MS/VFW/FOURCC / WVC1
Codec ID/Hint : Microsoft
Duration : 1 h 39 min
Bit rate : 22.3 Mb/s
Width : 1 920 pixels
Height : 1 080 pixels
Display aspect ratio : 16:9
Frame rate mode : Constant
Frame rate : 23.976 (24000/1001) FPS
Color space : YUV
Chroma subsampling : 4:2:0
Bit depth : 8 bits
Scan type : Progressive
Compression mode : Lossy
Bits/(Pixel*Frame) : 0.448
Stream size : 15.5 GiB (91%)
Language : English
Default : Yes
Forced : No

Audio #1
ID : 2
Format : AC-3
Format/Info : Audio Coding 3
Commercial name : Dolby Digital
Codec ID : A_AC3
Duration : 1 h 39 min
Bit rate mode : Constant
Bit rate : 384 kb/s
Channel(s) : 6 channels
Channel layout : L R C LFE Ls Rs
Sampling rate : 48.0 kHz
Frame rate : 31.250 FPS (1536 SPF)
Compression mode : Lossy
Stream size : 273 MiB (2%)
Title : iTunes
Language : Russian
Service kind : Complete Main
Default : Yes
Forced : Yes

Audio #2
ID : 3
Format : DTS XLL
Format/Info : Digital Theater Systems
Commercial name : DTS-HD Master Audio
Codec ID : A_DTS
Duration : 1 h 39 min
Bit rate mode : Variable
Bit rate : 1 931 kb/s
Channel(s) : 6 channels
Channel layout : C L R Ls Rs LFE
Sampling rate : 48.0 kHz
Frame rate : 93.750 FPS (512 SPF)
Bit depth : 16 bits
Compression mode : Lossless
Stream size : 1.34 GiB (8%)
Title : Original
Language : English
Default : No
Forced : No

Text
ID : 4
Format : UTF-8
Codec ID : S_TEXT/UTF8
Codec ID/Info : UTF-8 Plain Text
Duration : 1 h 38 min
Bit rate : 84 b/s
Count of elements : 1912
Stream size : 60.7 KiB (0%)
Title : SDH
Language : English
Default : No
Forced : No

Menu
00:00:00.000 : en:Chapter 01
00:07:35.455 : en:Chapter 02
00:15:43.943 : en:Chapter 03
00:24:42.481 : en:Chapter 04
00:33:37.015 : en:Chapter 05
00:40:46.444 : en:Chapter 06
00:49:43.981 : en:Chapter 07
00:58:01.478 : en:Chapter 08
01:06:15.972 : en:Chapter 09
01:14:41.477 : en:Chapter 10
01:24:06.041 : en:Chapter 11
01:32:05.520 : en:Chapter 12
Источник http://listRutor.org

Трекер:  [ 22-Мар-2020 14:10 ]

  

Скачать .torrent

Размер .torrent файла 22 KB


Размер: 17.08 GB
Хэш (hash) релиза: 2e7c45bd5e83807bd7dc947dd42e96c2129eb214
Подписка на обновления:

Торренты, похожие на Playmobil фильм: Через вселенные Playmobil: The Movie скачать торрент

Форум Название Автор Размер S L Добавлен
Мультфильмы 2016-2020 (Новинки мультфильмов) ·%· Playmobil фильм: Через вселенные / Playmobil: The Movie (2019) HDRip от ExKinoRay | KПK | iTunes Galfimbul ghost 545582286520 MB 0 0 1585156361

20:12

25-Мар-20

Мультфильмы 2016-2020 (Новинки мультфильмов) ·%· Playmobil фильм: Через вселенные / Playmobil: The Movie (2019) BDRip от Twister & ExKinoRay | iTunes Galfimbul ghost 15203216881.42 GB 0 0 1584988273

21:31

23-Мар-20

Мультфильмы 2016-2020 (Новинки мультфильмов) ·%· Playmobil фильм: Через вселенные / Playmobil: The Movie (2019) BDRip-AVC | iTunes Galfimbul ghost 15172775891.41 GB 0 0 1584910953

00:02

23-Мар-20

Мультфильмы 2016-2020 (Новинки мультфильмов) ·%· Playmobil фильм: Через вселенные / Playmobil: The Movie (2019) BDRip 720p от селезень | iTunes Galfimbul ghost 50720481684.72 GB 0 0 1584874873

14:01

22-Мар-20

Мультфильмы 2016-2020 (Новинки мультфильмов) ·%· Playmobil фильм: Через вселенные / Playmobil: The Movie (2019) BDRip 1080p от селезень | iTunes Galfimbul ghost 95893199328.93 GB 2 0 1584874328

13:52

22-Мар-20

Мультфильмы 2016-2020 (Новинки мультфильмов) ·%· Playmobil фильм: Через вселенные / Playmobil: The Movie (2019) BDRip от MegaPeer | iTunes Galfimbul ghost 15183974401.41 GB 0 0 1584874268

13:51

22-Мар-20

Еще никто не оставлял запись к записи скачать торрент Playmobil фильм: Через вселенные Playmobil: The Movie . Будь первым!

!Обратная связь