Скачать через торрент Польский след Фильм бесплатно в хорошем качестве torrent

Скачивайте на UnionPeer.org фильмы через торрент без регистрации. Новинки кино в хорошем качестве через торрент. На UnionPeer.org можно скачать через торрент фильмы 2014 и 2015 годов. Самые новые фильмы.

Скачать торрент Польский след бесплатно через .torrent фильм мультфильм сериал

Статистика раздачи
Размер:  1.46 GB   |    Зарегистрирован:  18 дней   |    .torrent скачан:  45 раз   |   
Раздают:  1  
 

Скачать Польский след (2018) WEB-DLRip-AVC от New-Team через torrent

 
загрузка...
 
Автор Сообщение

Galfimbul ghost

avatar Galfimbul ghost


Страна: Россия
Производство: Стар-медиа, Студия "Бабич-дизайн"

Жанр: документальный, военный, история
Год выпуска: 2018
Продолжительность: 01:04:03

Перевод: не требуется
Субтитры: нет
Оригинальная аудиодорожка: русский

Режиссер: Анастасия Попова

Голос за кадром: Всеволод Кузнецов

В ролях:
Станислав Каллас, Анна Яшина, Николай Орловский, Егор Новокшонов, Мария Климова...

Описание:
Россия и Польша. История двух стран на протяжении веков была наполнена конфликтами и политическими интригами. Периоды войны сменялись годами перемирия. Из фильма зритель узнает: какие исторические события и фигуры стояли за многовековым противостоянием двух славянских народов. Почему поляки оказались первыми, кто с оружием в руках оккупировал Киевскую Русь? Какую роль в отношениях между славянами сыграла борьба с монгольскими завоевателями? За что поляки в конце XVIII века убивали русских прямо на улицах Варшавы? Как разделы Польши между другими странами привели к её исчезновению? Каким образом поляки в начале XIX века стали приближёнными русского императорского двора и влияли на политику России? Как приход к власти во Франции Наполеона Бонапарта отразился на отношениях России и Польши? Почему поляки напали на Россию вместе с французами? Почему Наполеон разочаровал поляков, а поляки Наполеона? Как Польша возродилась из небытия и какую роль в этом сыграли российские правители?

Исходник: WEB-DL 1080p
Качество видео: WEB-DLRip-AVC
Формат видео: MKV

Видео: 1024x576 (16:9), 25,000 кадров/сек, H264 ~ 2013 Кбит/сек, 0.137 bit/pixel
Аудио: 48 kHz, Dolby Digital AC3 2.0, 192 kbps

Раздача от: [url=http://цензор/] [/url]
Общее
Полное имя : Polskiy.sled.2018.WEB-DLRip-AVC_[New-team]_by_AVP_Studio.mkv
Формат : Matroska
Версия формата : Version 2
Размер файла : 1,46 Гбайт
Продолжительность : 1 ч. 34 м.
Общий поток : 2207 Кбит/сек
Дата кодирования : UTC 2020-03-21 21:47:54
Программа кодирования : mkvmerge v6.9.1 ('Blue Panther') 32bit built on Apr 18 2014 18:15:44
Библиотека кодирования : libebml v1.3.0 + libmatroska v1.4.1

Видео
Идентификатор : 1
Формат : AVC
Формат/Информация : Advanced Video Codec
Профиль формата : High@L4.1
Настройки формата : CABAC / 10 Ref Frames
Параметр CABAC формата : Да
Параметр RefFrames формата : 10 кадров
Идентификатор кодека : V_MPEG4/ISO/AVC
Продолжительность : 1 ч. 34 м.
Битрейт : 2013 Кбит/сек
Ширина : 1024 пикселя
Высота : 576 пикселей
Соотношение сторон : 16:9
Режим частоты кадров : Постоянный
Частота кадров : 25,000 кадров/сек
Цветовое пространство : YUV
Субдискретизация насыщенности : 4:2:0
Битовая глубина : 8 бит
Тип развёртки : Прогрессивная
Бит/(Пиксели*Кадры) : 0.137
Размер потока : 1,30 Гбайт (89%)
Библиотека кодирования : x264 core 159 r2991 1771b55
Настройки программы : cabac=1 / ref=10 / deblock=1:-3:-2 / analyse=0x3:0x113 / me=umh / subme=10 / psy=1 / psy_rd=1.00:0.00 / mixed_ref=1 / me_range=32 / chroma_me=1 / trellis=2 / 8x8dct=1 / cqm=0 / deadzone=21,11 / fast_pskip=1 / chroma_qp_offset=-2 / threads=6 / lookahead_threads=1 / sliced_threads=0 / nr=0 / decimate=0 / interlaced=0 / bluray_compat=0 / constrained_intra=0 / bframes=8 / b_pyramid=2 / b_adapt=2 / b_bias=0 / direct=3 / weightb=1 / open_gop=0 / weightp=2 / keyint=250 / keyint_min=25 / scenecut=40 / intra_refresh=0 / rc_lookahead=40 / rc=2pass / mbtree=1 / bitrate=2013 / ratetol=1.0 / qcomp=0.60 / qpmin=0 / qpmax=69 / qpstep=4 / cplxblur=20.0 / qblur=0.5 / ip_ratio=1.40 / aq=1:1.00
Default : Да
Forced : Нет

Аудио
Идентификатор : 2
Формат : AC-3
Формат/Информация : Audio Coding 3
Коммерческое название : Dolby Digital
Идентификатор кодека : A_AC3
Продолжительность : 1 ч. 34 м.
Вид битрейта : Постоянный
Битрейт : 192 Кбит/сек
Каналы : 2 канала
ChannelLayout : L R
Частота : 48,0 КГц
Частота кадров : 31,250 кадров/сек (1536 SPF)
Метод сжатия : С потерями
Размер потока : 130 Мбайт (9%)
Default : Да
Forced : Нет
Источник http://listRutor.org

Трекер:  [ 23-Мар-2020 09:10 ]

  

Скачать .torrent

Размер .torrent файла 15 KB


Размер: 1.46 GB
Хэш (hash) релиза: 8524be14a30d5899f013a422ddcbd426fec3729b
Подписка на обновления:

Торренты, похожие на Польский след скачать торрент

Форум Название Автор Размер S L Добавлен
Российские фильмы 2016-2020 (Новинки русского кино) ·%· Польский след (2018) WEB-DLRip 720p от New-Team Galfimbul ghost 31234865292.91 GB 0 0 1584944446

09:20

23-Мар-20

Еще никто не оставлял запись к записи скачать торрент Польский след . Будь первым!

!Обратная связь