Nakano Mariko - UnionPeer.org HD

2015, 2014 UnionPeer.org

.

2.54 GB   |    :  3 2    |    .torrent :  393    |   
1  
   
 

Galfimbul

avatar Galfimbul


Nakano Mariko - [Pacopacomama.com]

: 2011 .
: Japan
: Asian, Creampie, Blowjob, Doggystyle, Lactation, Milking, Hairy, Straight, Orgy, Magic Wand
: 01:26:32
:

:
: 100111_472
: Pacopacomama.com

: Nakano Mariko

: Release Date: 2011-10-01
Duration: 01:26:31
Name: Nakano Mariko
Age: 28
Size: B102 W64 H92

HD : 720p
: SATRip
: WMV
: Windows Media Video 9 1280x720 29.97fps 4000kbps [Raw Video 1]
: WMA 2 48000Hz stereo 192kbps [Raw Audio 0]





<html>
<head><title>502 Bad Gateway</title></head>
<body bgcolor="white">
<center><h1>502 Bad Gateway</h1></center>
<hr><center>nginx/1.1.19</center>
</body>
</html>
<html>
<head><title>502 Bad Gateway</title></head>
<body bgcolor="white">
<center><h1>502 Bad Gateway</h1></center>
<hr><center>nginx/1.1.19</center>
</body>
</html>
<html>
<head><title>502 Bad Gateway</title></head>
<body bgcolor="white">
<center><h1>502 Bad Gateway</h1></center>
<hr><center>nginx/1.1.19</center>
</body>
</html>





Format : Windows Media
File size : 2.54 GiB
Duration : 1 h 26 min
Overall bit rate mode : Variable
Overall bit rate : 4 202 kb/s
Maximum Overall bit rate : 7 217 kb/s
Encoded date : UTC 2011-09-17 08:50:51.640

Video
ID : 2
Format : VC-1
Format profile : [email protected]
Codec ID : WMV3
Codec ID/Info : Windows Media Video 9
Codec ID/Hint : WMV3
Description of the codec : Windows Media Video 9 - Professional
Duration : 1 h 26 min
Bit rate mode : Variable
Bit rate : 4 000 kb/s
Width : 1 280 pixels
Height : 720 pixels
Display aspect ratio : 16:9
Frame rate : 29.970 (29970/1000) FPS
Color space : YUV
Chroma subsampling : 4:2:0
Bit depth : 8 bits
Scan type : Progressive
Compression mode : Lossy
Bits/(Pixel*Frame) : 0.145
Stream size : 2.42 GiB (95%)
NumberOfFrames : 155581

Audio
ID : 1
Format : WMA
Format version : Version 2
Codec ID : 161
Codec ID/Info : Windows Media Audio
Description of the codec : Windows Media Audio 9.2 - 192 kbps, 48 kHz, stereo 2-pass VBR
Duration : 1 h 26 min
Bit rate mode : Variable
Bit rate : 186 kb/s
Channel(s) : 2 channels
Sampling rate : 48.0 kHz
Bit depth : 16 bits
Stream size : 115 MiB (4%)


! AdBlock , )))
 ·  , , FAQ-
:  [ 25--2020 01:10 ]

  

.torrent

.torrent 3 KB


: 2.54 GB
(hash) : 87ed64627c7107ef984cbd23f6547cf3dfcf265b
··
...

Nakano Mariko - . !

!