Sayuri Ichinose - UnionPeer.org HD

2015, 2014 UnionPeer.org

.

1.99 GB   |    :  3 2    |    .torrent :  155    |   
1  
   
 

Galfimbul

avatar Galfimbul


Sayuri Ichinose - [Pacopacomama.com]

: 2013 .
: Japan
: Asaian, Blowjob, Hairy, Big Tits, Cunnilingus, Swallow, Ass-Butts, Facial
: 01:07:57
:

: 082013_977
: Paco Pacomama

: Sayuri Ichinose

:
: 2013-08-20
AV:

. : "Pacopacomama-977 - 30yo lactating wife - Sayuri Ichinose (一ノ瀬小百里) - Drp - [JAV lactating uncensored HD].wmv" "082013_977" https://パコパコママで無修正動画.xyz/082013_977.html. https://en.pacopacomama.com/ . , . - -

HD : 720p
: SATRip
: WMV
: Windows Media Video 9 1280x720 29.97fps 4000kbps [Raw Video 1]
: WMA 2 48000Hz stereo 192kbps [Raw Audio 0]

Format : Windows Media
File size : 1.99 GiB
Duration : 1 h 7 min
Overall bit rate mode : Variable
Overall bit rate : 4 191 kb/s
Maximum Overall bit rate : 7 252 kb/s
Encoded date : UTC 2013-08-06 19:02:28.141

Video
ID : 2
Format : VC-1
Format profile : [email protected]
Codec ID : WMV3
Codec ID/Info : Windows Media Video 9
Codec ID/Hint : WMV3
Description of the codec : Windows Media Video 9 - Professional
Duration : 1 h 7 min
Bit rate mode : Variable
Bit rate : 4 000 kb/s
Width : 1 280 pixels
Height : 720 pixels
Display aspect ratio : 16:9
Frame rate : 29.970 (29970/1000) FPS
Color space : YUV
Chroma subsampling : 4:2:0
Bit depth : 8 bits
Scan type : Progressive
Compression mode : Lossy
Bits/(Pixel*Frame) : 0.145
Stream size : 1.90 GiB (95%)
Language : English

Audio
ID : 1
Format : WMA
Format version : Version 2
Codec ID : 161
Codec ID/Info : Windows Media Audio
Description of the codec : Windows Media Audio 9.2 - 192 kbps, 48 kHz, stereo 2-pass VBR
Duration : 1 h 7 min
Bit rate mode : Variable
Bit rate : 193 kb/s
Channel(s) : 2 channels
Sampling rate : 48.0 kHz
Bit depth : 16 bits
Stream size : 94.0 MiB (5%)
Language : English


! AdBlock , )))
 ·  , , FAQ-
:  [ 25--2020 02:20 ]

  

.torrent

.torrent 3 KB


: 1.99 GB
(hash) : 33d8a05dca8aa7015a831d801bc6f3a93e7efbe8
··
...

Sayuri Ichinose - . !

!