Скачать через торрент Мой папа – Барышников Фильм бесплатно в хорошем качестве torrent

Скачивайте на UnionPeer.org фильмы через торрент без регистрации. Новинки кино в хорошем качестве через торрент. На UnionPeer.org можно скачать через торрент фильмы 2014 и 2015 годов. Самые новые фильмы.

Скачать торрент Мой папа – Барышников бесплатно через .torrent фильм мультфильм сериал

Статистика раздачи
Размер:  3.47 GB   |    Зарегистрирован:  13 дней   |    .torrent скачан:  13 раз   |   
Раздают:  1  
 

Скачать Мой папа – Барышников (2011) WEB-DL 1080p через torrent

 
загрузка...
 
Автор Сообщение

Galfimbul ghost

avatar Galfimbul ghost


Название: Мой папа – Барышников
Год выпуска: 2011
Жанр: Драма, комедия
Режиссеры: Дмитрий Поволоцкий, Марк Другой
В ролях: Дмитрий Выскубенко, Анна Михалкова, Владимир Капустин, Марина Полицеймако, Илья Рутберг, Людмила Титова, Анатолий Кот, Сергей Сосновский, Ксения Суркова, Лилия Ямада

О фильме: Москва, 1986 год. Начинается Перестройка. Обаятельный и неуклюжий мальчик Боря учится в хореографическом училище Большого Театра, любит музыку диско, мечтает танцевать с самой красивой девчонкой в классе и раскрывает удивительную тайну: его отец — великий танцор Михаил Барышников… Cовременный и жизнеутверждающий взгляд на не столь отдаленную эпоху, когда все мы жили в одинаковых квартирах с одинаковой мебелью и носили одинаковую одежду. А мечтали — быть разными.


Страна: Россия
Студия: Новые люди
Продолжительность: 01:27:27
Перевод: Не требуется

Файл
Качество: WEB-DL 1080p
Контейнер: MKV
Видео: MPEG-4 AVC, 1920x1012, 25.000 fps, 5119 Kbps
Аудио: Русский: AC3, 16 bits, 48 Khz, 5.1 ch, 448 Kbps
Субтитры: Английские
General
Unique ID : 175007992971658385679307464194704627329 (0x83A9503C1AC45876800D88DCED615681)
Complete name : Мой папа – Барышников.2011.mkv
Format : Matroska
Format version : Version 2
File size : 3.47 GiB
Duration : 1 h 27 min
Overall bit rate : 5 680 kb/s
Encoded date : UTC 2020-03-24 13:06:20
Writing application : mkvmerge v7.8.0 ('River Man') 32bit built on Mar 27 2015 16:18:02
Writing library : libebml v1.3.1 + libmatroska v1.4.2

Video
ID : 1
Format : AVC
Format/Info : Advanced Video Codec
Format profile : High@L4
Format settings : CABAC / 4 Ref Frames
Format settings, CABAC : Yes
Format settings, ReFrames : 4 frames
Codec ID : V_MPEG4/ISO/AVC
Duration : 1 h 27 min
Bit rate : 5 119 kb/s
Width : 1 920 pixels
Height : 1 012 pixels
Display aspect ratio : 1.897
Frame rate mode : Constant
Frame rate : 25.000 FPS
Color space : YUV
Chroma subsampling : 4:2:0
Bit depth : 8 bits
Scan type : Progressive
Bits/(Pixel*Frame) : 0.105
Stream size : 3.13 GiB (90%)
Title : Мой папа - Барышников.2011
Language : Russian
Default : Yes
Forced : No
Color range : Limited
Color primaries : BT.709
Transfer characteristics : BT.709
Matrix coefficients : BT.709

Audio
ID : 2
Format : AC-3
Format/Info : Audio Coding 3
Codec ID : A_AC3
Duration : 1 h 27 min
Bit rate mode : Constant
Bit rate : 448 kb/s
Channel(s) : 6 channels
Channel positions : Front: L C R, Side: L R, LFE
Sampling rate : 48.0 kHz
Frame rate : 31.250 FPS (1536 SPF)
Bit depth : 16 bits
Compression mode : Lossy
Stream size : 280 MiB (8%)
Title : AC-3; 16 bits 48 Khz; 5.1ch 448 Kbps; CBR (DVD9)
Language : Russian
Service kind : Complete Main
Default : Yes
Forced : No

Text
ID : 3
Format : UTF-8
Codec ID : S_TEXT/UTF8
Codec ID/Info : UTF-8 Plain Text
Language : English
Default : No
Forced : No
Источник http://listRutor.org

Трекер:  [ 25-Мар-2020 16:30 ]

  

Скачать .torrent

Размер .torrent файла 18 KB


Размер: 3.47 GB
Хэш (hash) релиза: b10149a4ff57fe41fd9865693d53b5da9744a3da
Подписка на обновления:

Торренты, похожие на Мой папа – Барышников скачать торрент

Форум Название Автор Размер S L Добавлен
Российские фильмы до 2016 ·· Мой папа – Барышников (Дмитрий Поволоцкий, Марк Другой) [2011, драма, комедия, WEB-DLRip] Galfimbul ghost 782696448746 MB 0 0 1377873431

17:37

30-Авг-13

Российские фильмы до 2016 ·· Мой папа - Барышников (Дмитрий Поволоцкий, Марк Другой) [2011, Россия, комедия, DVD5 (Сжатый)] исх. R5, Sub Eng + Original Rus Galfimbul ghost 46649958404.34 GB 0 0 1320608531

22:42

6-Ноя-11

Российские фильмы до 2016 ·· Мой папа - Барышников (Дмитрий Поволоцкий, Марк Другой) [2011, комедия, DVDRip] Galfimbul ghost 780945408745 MB 0 0 1320348517

22:28

3-Ноя-11

Российские фильмы до 2016 ·· Мой папа - Барышников (Дмитрий Поволоцкий, Марк Другой) [2011, Россия, комедия, DVD9] R5 Sub Eng + Original Rus [«Новый Диск»] L 54223851525.05 GB 0 0 1319604849

07:54

26-Окт-11

Российские фильмы до 2016 ·· Мой папа - Барышников (Дмитрий Поволоцкий, Марк Другой) [2011, комедия, DVDRip] L 14664396801.37 GB 0 0 1319604750

07:52

26-Окт-11

Еще никто не оставлял запись к записи скачать торрент Мой папа – Барышников . Будь первым!

!Обратная связь