Скачать через торрент Звездные войны: Войны клонов Star Wars: The Clone Wars Фильм бесплатно в хорошем качестве torrent

Скачивайте на UnionPeer.org фильмы через торрент без регистрации. Новинки кино в хорошем качестве через торрент. На UnionPeer.org можно скачать через торрент фильмы 2014 и 2015 годов. Самые новые фильмы.

Скачать торрент Звездные войны: Войны клонов Star Wars: The Clone Wars бесплатно через .torrent фильм мультфильм сериал

Статистика раздачи
Размер:  8.32 GB   |    Зарегистрирован:  13 дней   |    .torrent скачан:  16 раз   |   
Раздают:  1  
 

Скачать Звездные войны: Войны клонов / Star Wars: The Clone Wars [07x01-05 из 12] (2020) WEBRip 1080p | D | Flarrow Films через torrent

 
загрузка...
 
Автор Сообщение

Galfimbul ghost

avatar Galfimbul ghost


Звездные войны: Войны клонов /Star Wars: The Clone Wars

Год выхода: 2020
Жанр: мультфильм, фантастика, фэнтези, боевик, драма, приключения
Режиссеры: Стюарт Ли, Брайан О’Коннелл, Кайл Данливи
В ролях: Том Кэйн, Мэтт Лантер, Ди Брэдли Бейкер, Джеймс Арнольд Тейлор, Мэттью Вуд, Кори Бертон, Эшли Экштейн, Терренс «Т.К.» Карсон, Катрин Табер, Йен Эберкромби

О фильме:
Великая Армия Республики, ведомая Йодой, Мейсом Винду, Оби-Ваном Кеноби и другими рыцарями-джедаями, сражается против Новой Армии Дроидов сепаратистов.



Страна: США
Продолжительность: ~ 00:24:00 (серия)
Перевод: Дублированный (любительский) | Flarrow Films

Файл
Формат: MKV
Кодек: MPEG-4 AVC
Качество: WEBRip 1080p
Видео: 1920x804, ~ 9 800 kb/s, 23.976 FPS, 8 bits
Звук: AC-3, 320 kb/s, 2 channel, 48.0 kHz
Субтитры: отсутствуют
Сэмпл: Скачать
Внимание! Перед тем как скачать раздачу - скачайте Сэмпл для оценки качества видео и звука
1-я серия

General
Unique ID : 288595453827672830718415536539744112311 (0xD91D766F2FC96D6DE6B0D9F89FDC8EB7)
Complete name : [KORSARS]_Star.Wars.The.Clone.Wars.[S07E01].Flarrow.Films.mkv
Format : Matroska
Format version : Version 4
File size : 1.70 GiB
Duration : 23 min 51 s
Overall bit rate mode : Variable
Overall bit rate : 10.2 Mb/s
Encoded date : UTC 2020-02-25 13:28:31
Writing application : mkvmerge v32.0.0 ('Astral Progressions') 64-bit
Writing library : libebml v1.3.7 + libmatroska v1.5.0

Video
ID : 1
Format : AVC
Format/Info : Advanced Video Codec
Format profile : Main@L4.1
Format settings : CABAC / 2 Ref Frames
Format settings, CABAC : Yes
Format settings, Reference : 2 frames
Format settings, GOP : M=3, N=23
Codec ID : V_MPEG4/ISO/AVC
Duration : 23 min 51 s
Bit rate mode : Variable
Bit rate : 9 864 kb/s
Maximum bit rate : 12.0 Mb/s
Width : 1 920 pixels
Height : 804 pixels
Display aspect ratio : 2.40:1
Frame rate mode : Constant
Frame rate : 23.976 (24000/1001) FPS
Color space : YUV
Chroma subsampling : 4:2:0
Bit depth : 8 bits
Scan type : Progressive
Bits/(Pixel*Frame) : 0.267
Stream size : 1.64 GiB (97%)
Language : English
Default : Yes
Forced : No

Audio
ID : 2
Format : AC-3
Format/Info : Audio Coding 3
Commercial name : Dolby Digital
Codec ID : A_AC3
Duration : 23 min 51 s
Bit rate mode : Constant
Bit rate : 320 kb/s
Channel(s) : 2 channels
Channel layout : L R
Sampling rate : 48.0 kHz
Frame rate : 31.250 FPS (1536 SPF)
Compression mode : Lossy
Stream size : 54.6 MiB (3%)
Service kind : Complete Main
Default : Yes
Forced : No

2-я серия

General
Unique ID : 254017401476036734133169269554239903462 (0xBF19F8D4530C6C078823528FCD7616E6)
Complete name : [KORSARS]_Star.Wars.The.Clone.Wars.[S07E02].Flarrow.Films.mkv
Format : Matroska
Format version : Version 4
File size : 1.67 GiB
Duration : 23 min 31 s
Overall bit rate mode : Variable
Overall bit rate : 10.2 Mb/s
Encoded date : UTC 2020-03-04 12:32:57
Writing application : mkvmerge v32.0.0 ('Astral Progressions') 64-bit
Writing library : libebml v1.3.7 + libmatroska v1.5.0

Video
ID : 1
Format : AVC
Format/Info : Advanced Video Codec
Format profile : Main@L4.1
Format settings : CABAC / 2 Ref Frames
Format settings, CABAC : Yes
Format settings, Reference : 2 frames
Format settings, GOP : M=3, N=23
Codec ID : V_MPEG4/ISO/AVC
Duration : 23 min 31 s
Bit rate mode : Variable
Bit rate : 9 848 kb/s
Maximum bit rate : 12.0 Mb/s
Width : 1 920 pixels
Height : 804 pixels
Display aspect ratio : 2.40:1
Frame rate mode : Constant
Frame rate : 23.976 (24000/1001) FPS
Color space : YUV
Chroma subsampling : 4:2:0
Bit depth : 8 bits
Scan type : Progressive
Bits/(Pixel*Frame) : 0.266
Stream size : 1.62 GiB (97%)
Language : English
Default : Yes
Forced : No

Audio
ID : 2
Format : AC-3
Format/Info : Audio Coding 3
Commercial name : Dolby Digital
Codec ID : A_AC3
Duration : 23 min 31 s
Bit rate mode : Constant
Bit rate : 320 kb/s
Channel(s) : 2 channels
Channel layout : L R
Sampling rate : 48.0 kHz
Frame rate : 31.250 FPS (1536 SPF)
Compression mode : Lossy
Stream size : 53.8 MiB (3%)
Service kind : Complete Main
Default : Yes
Forced : No

3-я серия

General
Unique ID : 295663503241157469296338886593571448299 (0xDE6EB82CEC12B80224C5837600B7E5EB)
Complete name : [KORSARS]_Star.Wars.The.Clone.Wars.[S07E03].Flarrow.Films.mkv
Format : Matroska
Format version : Version 4
File size : 1.42 GiB
Duration : 18 min 22 s
Overall bit rate mode : Variable
Overall bit rate : 11.1 Mb/s
Encoded date : UTC 2020-03-11 07:14:45
Writing application : mkvmerge v32.0.0 ('Astral Progressions') 64-bit
Writing library : libebml v1.3.7 + libmatroska v1.5.0

Video
ID : 1
Format : AVC
Format/Info : Advanced Video Codec
Format profile : Main@L4.1
Format settings : CABAC / 2 Ref Frames
Format settings, CABAC : Yes
Format settings, Reference : 2 frames
Format settings, GOP : M=3, N=23
Codec ID : V_MPEG4/ISO/AVC
Duration : 18 min 22 s
Bit rate mode : Variable
Bit rate : 10.8 Mb/s
Maximum bit rate : 14.0 Mb/s
Width : 1 920 pixels
Height : 804 pixels
Display aspect ratio : 2.40:1
Frame rate mode : Constant
Frame rate : 23.976 (24000/1001) FPS
Color space : YUV
Chroma subsampling : 4:2:0
Bit depth : 8 bits
Scan type : Progressive
Bits/(Pixel*Frame) : 0.291
Stream size : 1.38 GiB (97%)
Language : English
Default : Yes
Forced : No

Audio
ID : 2
Format : AC-3
Format/Info : Audio Coding 3
Commercial name : Dolby Digital
Codec ID : A_AC3
Duration : 18 min 22 s
Bit rate mode : Constant
Bit rate : 320 kb/s
Channel(s) : 2 channels
Channel layout : L R
Sampling rate : 48.0 kHz
Frame rate : 31.250 FPS (1536 SPF)
Compression mode : Lossy
Stream size : 42.1 MiB (3%)
Service kind : Complete Main
Default : Yes
Forced : No


Примечание: Без интро Flarrow Films

25.03.2020 обновлено. Добавлена 4-я и 5-я серии.

Источник http://listRutor.org

Трекер:  [ 25-Мар-2020 21:30 ]

  

Скачать .torrent

Размер .torrent файла 21 KB


Размер: 8.32 GB
Хэш (hash) релиза: 62fdc6c5ce097093d59357cb5bb86b2a6184f250
Подписка на обновления:

Торренты, похожие на Звездные войны: Войны клонов Star Wars: The Clone Wars скачать торрент

Форум Название Автор Размер S L Добавлен
Мультфильмы 2016-2020 (Новинки мультфильмов) ·· Звездные войны: Войны клонов / Star Wars: The Clone Wars [07x01-03 из 12] (2020) WEBRip 1080p | D | Flarrow Films Galfimbul ghost 51462381584.79 GB 0 0 1583916048

11:40

11-Мар-20

Мультфильмы 2016-2020 (Новинки мультфильмов) ·· Звездные войны: Войны клонов / Star Wars: The Clone Wars [07x01-03 из 12] (2020) WEBRip 720p | LE-Production Galfimbul ghost 11991246291.12 GB 0 0 1583505701

17:41

6-Мар-20

Мультфильмы 2016-2020 (Новинки мультфильмов) ·· Звездные войны: Войны клонов / Star Wars: The Clone Wars [07x01-03 из 12] (2020) WEBRip 1080p | LE-Production Galfimbul ghost 30775383082.87 GB 0 0 1583505691

17:41

6-Мар-20

Мультфильмы 2016-2020 (Новинки мультфильмов) ·· Звездные войны: Войны клонов / Star Wars: The Clone Wars [07x01-03 из 12] (2020) WEBRip 2160p | LE-Production Galfimbul ghost 72758858846.78 GB 0 0 1583505647

17:40

6-Мар-20

Мультфильмы 2016-2020 (Новинки мультфильмов) ·· Звездные войны: Войны клонов / Star Wars: The Clone Wars [07x01-02 из 12] (2020) WEBRip 1080p | Flarrow Films Galfimbul ghost 36169989063.37 GB 0 0 1583336429

18:40

4-Мар-20

Мультфильмы 2016-2020 (Новинки мультфильмов) ·· Звездные войны: Войны клонов / Star Wars: The Clone Wars [07x01-02 из 12] (2020) WEBRip | Hamsterstudio Galfimbul ghost 439218176419 MB 0 0 1582966926

12:02

29-Фев-20

Мультфильмы 2016-2020 (Новинки мультфильмов) ·· Звездные войны: Войны клонов / Star Wars: The Clone Wars [07x01-02 из 12] (2020) WEBRip 720p | Hamsterstudio Galfimbul ghost 11208144331.04 GB 0 0 1582966918

12:01

29-Фев-20

Мультфильмы 2016-2020 (Новинки мультфильмов) ·· Звездные войны: Войны клонов / Star Wars: The Clone Wars [07x01-02 из 12] (2020) WEBRip 1080p | Hamsterstudio Galfimbul ghost 18206602201.7 GB 0 0 1582966909

12:01

29-Фев-20

Мультфильмы 2016-2020 (Новинки мультфильмов) ·· Звездные войны: Войны клонов / Star Wars: The Clone Wars [07x01 из 12] (2020) WEBRip 1080p | Hamsterstudio Galfimbul ghost 914156361872 MB 0 0 1582399301

22:21

22-Фев-20

Мультфильмы 2016-2020 (Новинки мультфильмов) ·· Звездные войны: Войны клонов / Star Wars: The Clone Wars [07x01 из 12] (2020) WEBRip 720p | Hamsterstudio Galfimbul ghost 561682528536 MB 0 0 1582399257

22:20

22-Фев-20

Мультфильмы 2016-2020 (Новинки мультфильмов) ·· Звездные войны: Войны клонов / Star Wars: The Clone Wars [07x01 из 12] (2020) WEBRip | Hamsterstudio Galfimbul ghost 221149184211 MB 0 0 1582399247

22:20

22-Фев-20

Мультфильмы 2016-2020 (Новинки мультфильмов) ·· Звездные войны: Войны клонов / Star Wars: The Clone Wars [07x01 из 12] (2019) WEBRip от Kerob | L Galfimbul ghost 342005270326 MB 0 0 1582285308

14:41

21-Фев-20

Мультфильмы 2016-2020 (Новинки мультфильмов) ·· Звездные войны: Войны клонов / Star Wars: The Clone Wars [07x01 из 12] (2019) WEBRip 720p от Kerob | L Galfimbul ghost 773259814737 MB 0 0 1582285265

14:41

21-Фев-20

Мультфильмы 2016-2020 (Новинки мультфильмов) ·%· Звездные войны: Войны клонов / Star Wars: The Clone Wars [S06] (2014) BDRip 1080p | D Galfimbul ghost 1253057048711.67 GB 0 0 1570138825

00:40

4-Окт-19

Мультфильмы до 2016 ·· Звездные войны: Война клонов / Star Wars: The Clone Wars (Дэйв Филони / Dave Filoni) [2008, Фантастика, боевик, приключения, мультфильм, BDRip 1080p] DVO Galfimbul ghost 49790854944.64 GB 0 0 1502112975

16:36

7-Авг-17

Мультфильмы до 2016 ·· Звёздные Войны: Войны Клонов / Star Wars: The Clone Wars (Дэйв Филони / Dave Filoni) [2008, Фантастика, Анимация, BDRemux 1080p] Dub (Невафильм) Galfimbul ghost 1408320596613.12 GB 0 0 1497254783

11:06

12-Июн-17

Мультфильмы до 2016 ·· Звёздные Войны: Войны Клонов / Star Wars: The Clone Wars (Дэйв Филони / Dave Filoni) [2008, Фантастика, Анимация, BDRip 720p] Dub (Невафильм) Galfimbul ghost 37313800423.48 GB 0 0 1497254774

11:06

12-Июн-17

Мультфильмы до 2016 ·· Звёздные Войны: Войны Клонов / Star Wars: The Clone Wars (Дэйв Филони / Dave Filoni) [2008, Фантастика, Анимация, BDRip 1080p] Dub (Невафильм) Galfimbul ghost 91883732328.56 GB 0 0 1497164776

10:06

11-Июн-17

Трейлеры и дополнительные материалы ·· Звездные войны: Войны клонов / Star Wars: The Clone Wars (Дэйв Филони / Dave Filoni) Сезон: 1-6 из 6 [2008-2014, документалистика, фэнтези, боевик, приключения, мультсериал, BDRemux] дополнительные материалы (Eng) Galfimbul ghost 4774228169544.46 GB 0 0 1486801366

11:22

11-Фев-17

Еще никто не оставлял запись к записи скачать торрент Звездные войны: Войны клонов Star Wars: The Clone Wars . Будь первым!

!Обратная связь