Скачать через торрент Война токов The Current War Фильм бесплатно в хорошем качестве torrent

Скачивайте на UnionPeer.org фильмы через торрент без регистрации. Новинки кино в хорошем качестве через торрент. На UnionPeer.org можно скачать через торрент фильмы 2014 и 2015 годов. Самые новые фильмы.

Скачать торрент Война токов The Current War бесплатно через .torrent фильм мультфильм сериал

Статистика раздачи
Размер:  13.01 GB   |    Зарегистрирован:  15 дней   |    .torrent скачан:  36 раз   |   
Раздают:  1  
 

Скачать Война токов / The Current War (2017) BDRip 1080p | Режиссерская версия | iTunes через torrent

 
загрузка...
 
Автор Сообщение

Galfimbul ghost

avatar Galfimbul ghost


Война токов / The Current War

Год выхода: 2017
Жанр: Биография, история, драма
Страна: США, Россия, Великобритания
Перевод: Дублированный | iTunes
Продолжительность: 01:42:17
Режиссер: Альфонсо Гомес-Рехон
В ролях: Бенедикт Камбербэтч, Том Холланд, Майкл Шеннон, Николас Холт, Кэтрин Уотерстон, Мэттью Макфэдиен, Оливер Пауэлл, Нэнси Крэйн, Лиза Росс, Тим Стид и др.

О фильме: Америка, 1880 год. Мир освещается огнём, механизмы приводятся в движение паром или приложением силы. Гениальный изобретатель Томас Эдисон совершил ряд прорывных открытий, среди которых постоянный ток и изобретение лампы накаливания. Пока он встречается с инвесторами, инженер Джордж Вестингауз, сколотивший состояние на патенте тормозов для поездов, видит больше преимуществ в использовании переменного тока. Кроме того, недальновидный бизнесмен Эдисон берёт на работу простым инженером эмигранта Николу Теслу, и не увидев в его идеях потенциала, вскоре теряет ценного сотрудника. Соревнование за электрификацию американских городов — война постоянного и переменного токов продолжается.



Файл
Качество: BDRip 1080p | The.Current.War.2017.DC.REPACK.COMPLETE.BLURAY-WUTANG
Видео: MPEG-4 AVC, 1920x804, 17366 kbps, 23,976 fps
Звук#1: русский, AC3, 5.1 ch, 48 kHz, 384 kbps | iTunes
Звук#2: английский, AC3, 5.1 ch, 48 kHz, 448 kbps | оригинал
Субтитры: русские (форс.), английские (SDH)
Общее
Уникальный идентификатор : 201233460601162884884936406959396106657 (0x9764279E3FDB79D18733BABF63D231A1)
Полное имя : G:Torrent2VojnaTokovBDRip1080p.mkv
Формат : Matroska
Версия формата : Version 4 / Version 2
Размер файла : 13,0 Гбайт
Продолжительность : 1 ч. 42 м.
Общий поток : 18,2 Мбит/сек
Дата кодирования : UTC 2020-03-25 19:11:12
Программа кодирования : mkvmerge v9.5.0 ('Quiet Fire') 64bit
Библиотека кодирования : libebml v1.3.4 + libmatroska v1.4.5

Видео
Идентификатор : 1
Формат : AVC
Формат/Информация : Advanced Video Codec
Профиль формата : High@L4.1
Настройки формата : CABAC / 5 Ref Frames
Параметр CABAC формата : Да
Параметр RefFrames формата : 5 кадров
Идентификатор кодека : V_MPEG4/ISO/AVC
Продолжительность : 1 ч. 42 м.
Битрейт : 17,4 Мбит/сек
Ширина : 1920 пикселей
Высота : 804 пикселя
Соотношение сторон : 2,40:1
Режим частоты кадров : Постоянный
Частота кадров : 23,976 (23976/1000) кадра/сек
Цветовое пространство : YUV
Субдискретизация насыщенности : 4:2:0
Битовая глубина : 8 бит
Тип развёртки : Прогрессивная
Бит/(Пиксели*Кадры) : 0.469
Размер потока : 12,4 Гбайт (95%)
Заголовок : Sisendrovich(R)
Библиотека кодирования : x264 core 159 r2991 1771b55
Настройки программы : cabac=1 / ref=5 / deblock=1:-1:-1 / analyse=0x3:0x133 / me=tesa / subme=11 / psy=1 / psy_rd=1.00:0.00 / mixed_ref=1 / me_range=32 / chroma_me=1 / trellis=2 / 8x8dct=1 / cqm=0 / deadzone=21,11 / fast_pskip=0 / chroma_qp_offset=-2 / threads=24 / lookahead_threads=6 / sliced_threads=0 / nr=0 / decimate=0 / interlaced=0 / bluray_compat=0 / constrained_intra=0 / bframes=10 / b_pyramid=2 / b_adapt=2 / b_bias=0 / direct=3 / weightb=1 / open_gop=0 / weightp=2 / keyint=240 / keyint_min=23 / scenecut=40 / intra_refresh=0 / rc_lookahead=60 / rc=2pass / mbtree=0 / bitrate=17366 / ratetol=1.0 / qcomp=0.70 / qpmin=0 / qpmax=69 / qpstep=4 / cplxblur=20.0 / qblur=0.5 / vbv_maxrate=50000 / vbv_bufsize=62500 / nal_hrd=none / filler=0 / ip_ratio=1.40 / pb_ratio=1.30 / aq=3:0.90 / zones=91597,95696,crf=15
Язык : English
Default : Да
Forced : Нет

Аудио #1
Идентификатор : 2
Формат : AC-3
Формат/Информация : Audio Coding 3
Параметр Endianness формата : Big
Идентификатор кодека : A_AC3
Продолжительность : 1 ч. 42 м.
Вид битрейта : Постоянный
Битрейт : 384 Кбит/сек
Каналы : 6 каналов
Расположение каналов : Front: L C R, Side: L R, LFE
Частота : 48,0 КГц
Частота кадров : 31,250 кадров/сек (1536 SPF)
Битовая глубина : 16 бит
Метод сжатия : С потерями
Размер потока : 281 Мбайт (2%)
Заголовок : rus
Язык : Russian
Default : Да
Forced : Нет

Аудио #2
Идентификатор : 3
Формат : AC-3
Формат/Информация : Audio Coding 3
Параметр Endianness формата : Big
Идентификатор кодека : A_AC3
Продолжительность : 1 ч. 42 м.
Вид битрейта : Постоянный
Битрейт : 448 Кбит/сек
Каналы : 6 каналов
Расположение каналов : Front: L C R, Side: L R, LFE
Частота : 48,0 КГц
Частота кадров : 31,250 кадров/сек (1536 SPF)
Битовая глубина : 16 бит
Метод сжатия : С потерями
Размер потока : 328 Мбайт (2%)
Заголовок : eng
Язык : English
Default : Нет
Forced : Нет

Текст #1
Идентификатор : 4
Формат : UTF-8
Идентификатор кодека : S_TEXT/UTF8
Идентификатор кодека/Информация : UTF-8 Plain Text
Продолжительность : 1 ч. 32 м.
Битрейт : 5 бит/сек
ElementCount : 56
Размер потока : 3,93 Кбайт (0%)
Заголовок : rusForced
Язык : Russian
Default : Да
Forced : Нет

Текст #2
Идентификатор : 5
Формат : UTF-8
Идентификатор кодека : S_TEXT/UTF8
Идентификатор кодека/Информация : UTF-8 Plain Text
Продолжительность : 1 ч. 39 м.
Битрейт : 70 бит/сек
ElementCount : 1429
Размер потока : 51,3 Кбайт (0%)
Заголовок : engSDH
Язык : English
Default : Нет
Forced : Нет

Меню
00:00:00.000 : en:Chapter 1
00:04:15.880 : en:Chapter 2
00:07:28.781 : en:Chapter 3
00:13:03.616 : en:Chapter 4
00:17:20.205 : en:Chapter 5
00:23:52.431 : en:Chapter 6
00:31:15.081 : en:Chapter 7
00:36:49.999 : en:Chapter 8
00:41:15.389 : en:Chapter 9
00:45:56.587 : en:Chapter 10
00:52:21.555 : en:Chapter 11
00:56:40.730 : en:Chapter 12
01:01:52.375 : en:Chapter 13
01:06:31.362 : en:Chapter 14
01:13:37.955 : en:Chapter 15
01:17:23.221 : en:Chapter 16
01:24:23.892 : en:Chapter 17
01:28:39.480 : en:Chapter 18
01:33:28.686 : en:Chapter 19
01:36:04.508 : en:Chapter 20
Рип и релиз от:
Источник http://listRutor.org

Трекер:  [ 25-Мар-2020 22:40 ]

  

Скачать .torrent

Размер .torrent файла 33 KB


Размер: 13.01 GB
Хэш (hash) релиза: 1aa6eb97892c79e9b50e492f5b411cc120b456f8
Подписка на обновления:

Торренты, похожие на Война токов The Current War скачать торрент

Форум Название Автор Размер S L Добавлен
Зарубежные фильмы 2016-2019 (Новинки зарубежного кино) ·%· Война токов / The Current War (2017) BDRip от MegaPeer | Режиссерская версия | iTunes Galfimbul ghost 15682992841.46 GB 0 0 1585209012

10:50

26-Мар-20

Зарубежные фильмы 2016-2019 (Новинки зарубежного кино) ·%· Война токов / The Current War (2017) BDRip | Режиссерская версия | iTunes Galfimbul ghost 15614873601.45 GB 0 0 1585165254

22:40

25-Мар-20

Зарубежные фильмы 2016-2019 (Новинки зарубежного кино) ·%· Война токов / The Current War (2017) BDRip 720p | Режиссерская версия | iTunes Galfimbul ghost 61123367225.69 GB 0 0 1585165231

22:40

25-Мар-20

Зарубежные фильмы 2016-2019 (Новинки зарубежного кино) ·%· Война токов / The Current War (2017) HDRip от Scarabey | Режиссерская версия | D Galfimbul ghost 15542947841.45 GB 0 0 1585070410

20:20

24-Мар-20

Зарубежные фильмы 2016-2019 (Новинки зарубежного кино) ·%· Война токов / The Current War (2017) BDRip-AVC | D | Directors Cut Galfimbul ghost 15654907531.46 GB 0 0 1584987042

21:10

23-Мар-20

Зарубежные фильмы 2016-2019 (Новинки зарубежного кино) ·%· Война токов / The Current War (2017) BDRip | D Galfimbul ghost 15616081921.45 GB 0 0 1584966071

15:21

23-Мар-20

Зарубежные фильмы 2016-2019 (Новинки зарубежного кино) ·%· Война токов / The Current War (2017) BDRip 720p | D Galfimbul ghost 59650226505.56 GB 0 0 1584966046

15:20

23-Мар-20

Зарубежные фильмы 2016-2019 (Новинки зарубежного кино) ·%· Война токов / The Current War (2017) BDRip 1080p | D Galfimbul ghost 1381730588012.87 GB 2 0 1584966020

15:20

23-Мар-20

Зарубежные фильмы 2016-2019 (Новинки зарубежного кино) ·· Война токов / The Current War (2017) HDRip-AVC | L Galfimbul ghost 780092445744 MB 0 0 1580125808

14:50

27-Янв-20

Зарубежные фильмы 2016-2019 (Новинки зарубежного кино) ·%· Война токов / The Current War (2017) BDRip 720p от Scarabey | L Galfimbul ghost 59737527165.56 GB 0 0 1577728808

21:00

30-Дек-19

Зарубежные фильмы 2016-2019 (Новинки зарубежного кино) ·%· Война токов / The Current War (2017) HDRip от Portablius | L Galfimbul ghost 781889536746 MB 0 0 1576947641

20:00

21-Дек-19

Зарубежные фильмы 2016-2019 (Новинки зарубежного кино) ·%· Война токов / The Current War (2017) BDRip 720p | L Galfimbul ghost 50025206904.66 GB 2 0 1576872620

23:10

20-Дек-19

Зарубежные фильмы 2016-2019 (Новинки зарубежного кино) ·%· Война токов / The Current War (2017) HDRip от Scarabey | L Galfimbul ghost 15419617281.44 GB 0 0 1576345900

20:51

14-Дек-19

Зарубежные фильмы 2016-2019 (Новинки зарубежного кино) ·%· Война токов / The Current War (2017) BDRip 1080p | P Galfimbul ghost 1424377923113.27 GB 0 0 1576263015

21:50

13-Дек-19

Зарубежные фильмы 2016-2019 (Новинки зарубежного кино) ·%· Война токов / The Current War (2017) BDRip от Dalemake | P Galfimbul ghost 15643095041.46 GB 2 0 1576225223

11:20

13-Дек-19

Еще никто не оставлял запись к записи скачать торрент Война токов The Current War . Будь первым!

!Обратная связь