Скачать через торрент Бладшот Bloodshot Фильм бесплатно в хорошем качестве torrent

Скачивайте на UnionPeer.org фильмы через торрент без регистрации. Новинки кино в хорошем качестве через торрент. На UnionPeer.org можно скачать через торрент фильмы 2014 и 2015 годов. Самые новые фильмы.

Скачать торрент Бладшот Bloodshot бесплатно через .torrent фильм мультфильм сериал

Статистика раздачи
Размер:  10.94 GB   |    Зарегистрирован:  12 дней   |    .torrent скачан:  85 раз   |   
Раздают:  1  
 

Скачать Бладшот / Bloodshot (2020) WEB-DL 1080p | Sub через torrent

 
загрузка...
 
Автор Сообщение

Galfimbul ghost

avatar Galfimbul ghost


Бладшот /Bloodshot

Год выхода: 2020
Жанр: Фантастика, боевик

Режиссер: Дэйв Уилсон

В ролях: Вин Дизель, Гай Пирс, Ламорн Моррис, Эйса Гонсалес, Сэм Хьюэн, Сиддхартх Дхананджай, Талула Райли, Тоби Кеббелл, Йоуханнес Хёйкьюр, Йоуханнессон, Алекс Эрнандез

О фильме:
Корпорация RST возвращает к жизни недавно убитого солдата Рэя Гаррисона. Армия нанороботов в его крови превратила Рэя в бессмертного Бладшота, наделенного сверхчеловеческой силой и способностью мгновенно самоисцеляться. Контролируя тело Рэя, компания влияет на его разум и воспоминания. Но герой пойдет на все, чтобы выяснить правду.



Страна: Китай, США
Продолжительность: 01:49:20
Перевод: Субтитры

Файл
Кодек: x.264
Качество: WEB-DL 1080p | Amazon
Видео: AVC, 1920x800 (2.40:1), 23.976 fps, 13.9 Mb/s
Аудио: AC3, 48.0 kHz, 6 ch, 448 kb/s | ENG
Субтитры: Русские (Full), украинские (Full), английские (Full, SDH)

Сэмпл
Русские: Екатерина Лисицина
Украинские: Владимир Фатун
General
Unique ID : 209095106389808883848057067412997858654 (0x9D4E40AE76929A86B93C25710D1CE55E)
Complete name : Bloodshot.(2020).WEB-DL.1080p.mkv
Format : Matroska
Format version : Version 4
File size : 10.9 GiB
Duration : 1 h 49 min
Overall bit rate : 14.3 Mb/s
Encoded date : UTC 2020-03-25 22:50:51
Writing application : mkvmerge v8.3.0 ('Over the Horizon') 64bit
Writing library : libebml v1.3.1 + libmatroska v1.4.2

Video
ID : 1
Format : AVC
Format/Info : Advanced Video Codec
Format profile : High@L4.1
Format settings : CABAC / 5 Ref Frames
Format settings, CABAC : Yes
Format settings, ReFrames : 5 frames
Codec ID : V_MPEG4/ISO/AVC
Duration : 1 h 49 min
Bit rate : 13.9 Mb/s
Width : 1 920 pixels
Height : 800 pixels
Display aspect ratio : 2.40:1
Frame rate mode : Constant
Frame rate : 23.976 (24000/1001) FPS
Color space : YUV
Chroma subsampling : 4:2:0
Bit depth : 8 bits
Scan type : Progressive
Bits/(Pixel*Frame) : 0.377
Stream size : 10.6 GiB (97%)
Writing library : x264 core 158 r2984 3759fcb
Encoding settings : cabac=1 / ref=5 / deblock=1:-3:-3 / analyse=0x3:0x133 / me=umh / subme=10 / psy=1 / psy_rd=1.00:0.00 / mixed_ref=1 / me_range=48 / chroma_me=1 / trellis=2 / 8x8dct=1 / cqm=0 / deadzone=21,11 / fast_pskip=0 / chroma_qp_offset=-2 / threads=25 / lookahead_threads=4 / sliced_threads=0 / nr=0 / decimate=0 / interlaced=0 / bluray_compat=0 / constrained_intra=0 / bframes=8 / b_pyramid=2 / b_adapt=2 / b_bias=0 / direct=3 / weightb=1 / open_gop=0 / weightp=2 / keyint=250 / keyint_min=23 / scenecut=40 / intra_refresh=0 / rc=crf / mbtree=0 / crf=18.0 / qcomp=0.60 / qpmin=0 / qpmax=69 / qpstep=4 / ip_ratio=1.30 / pb_ratio=1.20 / aq=3:0.80
Default : Yes
Forced : No

Audio
ID : 2
Format : AC-3
Format/Info : Audio Coding 3
Commercial name : Dolby Digital
Codec ID : A_AC3
Duration : 1 h 49 min
Bit rate mode : Constant
Bit rate : 448 kb/s
Channel(s) : 6 channels
Channel layout : L R C LFE Ls Rs
Sampling rate : 48.0 kHz
Frame rate : 31.250 FPS (1536 SPF)
Bit depth : 16 bits
Compression mode : Lossy
Stream size : 350 MiB (3%)
Language : English
Default : Yes
Forced : No

Text #1
ID : 3
Format : UTF-8
Codec ID : S_TEXT/UTF8
Codec ID/Info : UTF-8 Plain Text
Duration : 1 h 41 min
Bit rate : 77 b/s
Count of elements : 1071
Stream size : 57.7 KiB (0%)
Title : Full
Language : Russian
Default : Yes
Forced : Yes

Text #2
ID : 4
Format : UTF-8
Codec ID : S_TEXT/UTF8
Codec ID/Info : UTF-8 Plain Text
Duration : 1 h 41 min
Bit rate : 70 b/s
Count of elements : 1071
Stream size : 52.6 KiB (0%)
Title : Full
Language : Ukrainian
Default : No
Forced : No

Text #3
ID : 5
Format : UTF-8
Codec ID : S_TEXT/UTF8
Codec ID/Info : UTF-8 Plain Text
Duration : 1 h 41 min
Bit rate : 45 b/s
Count of elements : 1150
Stream size : 33.9 KiB (0%)
Title : Full
Language : English
Default : No
Forced : No

Text #4
ID : 6
Format : UTF-8
Codec ID : S_TEXT/UTF8
Codec ID/Info : UTF-8 Plain Text
Duration : 1 h 47 min
Bit rate : 51 b/s
Count of elements : 1493
Stream size : 40.7 KiB (0%)
Title : SDH
Language : English
Default : No
Forced : No

Menu
00:00:00.000 : en:Studio Logo
00:01:02.000 : en:Scene 2
00:04:10.000 : en:Scene 3
00:05:09.000 : en:Scene 4
00:07:01.000 : en:Scene 5
00:08:51.000 : en:Scene 6
00:13:04.000 : en:Scene 7
00:17:31.000 : en:Scene 8
00:20:39.000 : en:Scene 9
00:22:46.000 : en:Scene 10
00:25:07.000 : en:Scene 11
00:27:57.000 : en:Scene 12
00:29:27.000 : en:Scene 13
00:32:12.000 : en:Scene 14
00:32:43.000 : en:Scene 15
00:38:27.000 : en:Scene 16
00:41:42.000 : en:Scene 17
00:43:21.000 : en:Scene 18
00:50:55.000 : en:Scene 19
00:52:44.000 : en:Scene 20
00:54:16.000 : en:Scene 21
00:56:21.000 : en:Scene 22
01:02:31.000 : en:Scene 23
01:08:10.000 : en:Scene 24
01:09:01.000 : en:Scene 25
01:09:51.000 : en:Scene 26
01:12:44.000 : en:Scene 27
01:17:38.000 : en:Scene 28
01:19:16.000 : en:Scene 29
01:22:21.000 : en:Scene 30
01:27:32.000 : en:Scene 31
01:28:15.000 : en:Scene 32
01:31:09.000 : en:Scene 33
01:35:20.000 : en:Scene 34
01:38:33.000 : en:Scene 35
01:42:38.000 : en:End Credits
Перевод русскими субтитрами


Перевод украинскими субтитрами
Источник http://listRutor.org

Трекер:  [ 26-Мар-2020 02:20 ]

  

Скачать .torrent

Размер .torrent файла 110 KB


Размер: 10.94 GB
Хэш (hash) релиза: 19969c8536a22e030b9cc44d29a0ae9f7b1963c7
Подписка на обновления:

Торренты, похожие на Бладшот Bloodshot скачать торрент

Форум Название Автор Размер S L Добавлен
Зарубежные фильмы 2016-2019 (Новинки зарубежного кино) ·%· Бладшот / Bloodshot (2020) WEB-DLRip-AVC от ExKinoRay | iTunes Galfimbul ghost 32177887823 GB 2 0 1585497642

19:00

29-Мар-20

Зарубежные фильмы 2016-2019 (Новинки зарубежного кино) ·%· Бладшот / Bloodshot (2020) WEB-DLRip-HEVC 1080p | iTunes Galfimbul ghost 29309591332.73 GB 2 0 1585478414

13:40

29-Мар-20

Зарубежные фильмы 2016-2019 (Новинки зарубежного кино) ·%· Бладшот / Bloodshot (2020) WEB-DL 1080p | iTunes Galfimbul ghost 1238087949811.53 GB 2 2 1585475414

12:50

29-Мар-20

Зарубежные фильмы 2016-2019 (Новинки зарубежного кино) ·%· Бладшот / Bloodshot (2020) UHD WEB-DL 2160p от селезень | 4K | SDR | iTunes Galfimbul ghost 1853775266417.26 GB 2 0 1585426285

23:11

28-Мар-20

Зарубежные фильмы 2016-2019 (Новинки зарубежного кино) ·%· Бладшот / Bloodshot (2020) UHD WEB-DL 2160p от селезень | 4K | HDR | iTunes Galfimbul ghost 1856909862817.29 GB 0 0 1585423101

22:18

28-Мар-20

Зарубежные фильмы 2016-2019 (Новинки зарубежного кино) ·%· Бладшот / Bloodshot (2020) WEB-DLRip от MegaPeer | iTunes Galfimbul ghost 15699380021.46 GB 2 0 1585422916

22:15

28-Мар-20

Зарубежные фильмы 2016-2019 (Новинки зарубежного кино) ·%· Бладшот / Bloodshot (2020) WEB-DL 1080p от селезень | iTunes Galfimbul ghost 79005704367.36 GB 0 0 1585420257

21:30

28-Мар-20

Зарубежные фильмы 2016-2019 (Новинки зарубежного кино) ·%· Бладшот / Bloodshot (2020) WEB-DL 720p от селезень | iTunes Galfimbul ghost 43303079944.03 GB 2 0 1585420248

21:30

28-Мар-20

Зарубежные фильмы 2016-2019 (Новинки зарубежного кино) ·%· Бладшот / Bloodshot (2020) WEB-DLRip | HDrezka Studio Galfimbul ghost 15707481911.46 GB 0 0 1585395619

14:40

28-Мар-20

Зарубежные фильмы 2016-2019 (Новинки зарубежного кино) ·%· Бладшот / Bloodshot (2020) UHD WEB-DL 2160p | 4K | HDR || HDrezka Studio Galfimbul ghost 1862158463617.34 GB 0 0 1585388419

12:40

28-Мар-20

Зарубежные фильмы 2016-2019 (Новинки зарубежного кино) ·%· Бладшот / Bloodshot (2020) WEB-DL 1080p | HDrezka Studio Galfimbul ghost 79530564377.41 GB 0 0 1585386019

12:00

28-Мар-20

Зарубежные фильмы 2016-2019 (Новинки зарубежного кино) ·%· Бладшот / Bloodshot (2020) WEB-DLRip | Mallorn Galfimbul ghost 790394180754 MB 0 0 1585384822

11:40

28-Мар-20

Зарубежные фильмы 2016-2019 (Новинки зарубежного кино) ·%· Бладшот / Bloodshot (2020) WEB-DLRip-HEVC 1080p | L, A Galfimbul ghost 31933193702.97 GB 0 0 1585348810

01:40

28-Мар-20

Зарубежные фильмы 2016-2019 (Новинки зарубежного кино) ·%· Бладшот / Bloodshot (2020) WEB-DLRip от Scarabey | A Galfimbul ghost 16060866561.5 GB 0 0 1585332018

21:00

27-Мар-20

Зарубежные фильмы 2016-2019 (Новинки зарубежного кино) ·%· Бладшот / Bloodshot (2020) WEB-DLRip | Mallorn Galfimbul ghost 15707463511.46 GB 2 0 1585317655

17:00

27-Мар-20

Зарубежные фильмы 2016-2019 (Новинки зарубежного кино) ·%· Бладшот / Bloodshot (2020) UHD WEB-DL-HEVC 2160p | 4K | SDR | L, A Galfimbul ghost 1911532206217.8 GB 2 3 1585309819

14:50

27-Мар-20

Зарубежные фильмы 2016-2019 (Новинки зарубежного кино) ·%· Бладшот / Bloodshot (2020) WEB-DLRip-AVC | Mallorn Galfimbul ghost 780377870744 MB 0 0 1585308609

14:30

27-Мар-20

Зарубежные фильмы 2016-2019 (Новинки зарубежного кино) ·%· Бладшот / Bloodshot (2020) WEB-DLRip-AVC | A, L Galfimbul ghost 20173348721.88 GB 2 0 1585293608

10:20

27-Мар-20

Зарубежные фильмы 2016-2019 (Новинки зарубежного кино) ·%· Бладшот / Bloodshot (2020) WEB-DL 720p | L, A Galfimbul ghost 49078497254.57 GB 0 0 1585291219

09:40

27-Мар-20

Зарубежные фильмы 2016-2019 (Новинки зарубежного кино) ·%· Бладшот / Bloodshot (2020) WEB-DL 1080p | Mallorn Galfimbul ghost 1211817373511.29 GB 2 0 1585264292

02:11

27-Мар-20

Еще никто не оставлял запись к записи скачать торрент Бладшот Bloodshot . Будь первым!

!Обратная связь