Скачать через торрент Семейка Аддамс The Addams Family Фильм бесплатно в хорошем качестве torrent

Скачивайте на UnionPeer.org фильмы через торрент без регистрации. Новинки кино в хорошем качестве через торрент. На UnionPeer.org можно скачать через торрент фильмы 2014 и 2015 годов. Самые новые фильмы.

Скачать торрент Семейка Аддамс The Addams Family бесплатно через .torrent фильм мультфильм сериал

Статистика раздачи
Размер:  9.72 GB   |    Зарегистрирован:  5 месяцев 9 дней   |    .torrent скачан:  6 раз   |   
Раздают:  1  
 

Скачать Семейка Аддамс / The Addams Family (2019) BDRip 1080p от ELEKTRI4KA | D, A | Лицензия через torrent

 
Sprinthost
загрузка...
 
Автор Сообщение

Galfimbul ghost

avatar Galfimbul ghost


Семейка Аддамс /The Addams Family

Год выхода: 2019
Жанр: мультфильм, ужасы, фэнтези, комедия, семейный
Режиссер: Грег Тирнан, Конрад Вернон
В ролях: Оскар Айзек, Шарлиз Терон, Хлоя Грейс Морец, Финн Вулфард, Ник Кролл, Снуп Догг, Бетт Мидлер, Эллисон Джэнни, Мартин Шорт, Кэтрин О`Хара

О фильме: Папа любит долгие прогулки в ненастную погоду. Мама считает, что черный цвет самый яркий. У детей кладбище - любимая площадка для игр. Бабушка выпивает пару капель яда перед сном. Вы все еще думаете, что ваши родственники странные? Знакомьтесь - семейка Аддамс.



Выпущено: Канада, США
Студия: Metro-Goldwyn-Mayer (MGM), Cinesite Animation
Продолжительность: 01:27:01
Озвучивание:
#1: Дублированный | BD EUR
#2: Авторский | М. Яроцкий

Файл
Формат: MKV
Качество: BDRip 1080p
Видео: h.264, 11.6 Mb/s, 1920x1036, 23.976 fps
Аудио 1: 48 kHz, AC3 Dolby Digital, 3/2 (L,C,R,l,r) + LFE ch, ~640 kbps | Русский - DUB
Аудио 2: 48 kHz, DTS, 3/2 (L,C,R,l,r) + LFE ch, ~768 kbps | Русский - DUB
Аудио 3: 48 kHz, DTS, 3/2 (L,C,R,l,r) + LFE ch, ~1509 kbps | Русский - AVO
Аудио 4: 48 kHz, AC3 Dolby Digital, 3/2 (L,C,R,l,r) + LFE ch, ~640 kbps | Русский - AVO
Аудио 5: 48 kHz, AC3 Dolby Digital, 2/0 (L,R) ch, ~192 kbps | Украинский - DUB
Аудио 6: 48 kHz, AC3 Dolby Digital, 3/2 (L,C,R,l,r) + LFE ch, ~640 kbps | Английский
Субтитры: Russian (Forced, Full), Ukrainian (Forced), English (Full)
Дополнительно: Сохранены оригинальные чаптеры.
General
Unique ID: 215029236900104481361202172411824456390 (0xA1C51FE7851E86D3BFDAB80924D242C6)
Complete name: The.Addams.Family.2019.D.A.BDRip.1080p.ELEKTRI4KA.mkv
Format: Matroska
Format version: Version 4
File size: 9.72 GiB
Duration: 1 h 27 min
Overall bit rate: 16.0 Mb/s
Movie name: ELEKTRI4KA - Kapo
Encoded date: UTC 2020-04-12 01:21:57
Writing application: mkvmerge v41.0.0 ('Smarra') 64-bit
Writing library: libebml v1.3.9 + libmatroska v1.5.2

Video
ID: 1
Format: AVC
Format/Info: Advanced Video Codec
Format profile: High@L4.1
Format settings: CABAC / 4 Ref Frames
Format settings, CABAC: Yes
Format settings, Reference frames: 4 frames
Codec ID: V_MPEG4/ISO/AVC
Duration: 1 h 27 min
Bit rate: 11.6 Mb/s
Width: 1 920 pixels
Height: 1 036 pixels
Display aspect ratio: 1.85:1
Frame rate mode: Constant
Frame rate: 23.976 (24000/1001) FPS
Color space: YUV
Chroma subsampling: 4:2:0
Bit depth: 8 bits
Scan type: Progressive
Bits/(Pixel*Frame): 0.243
Stream size: 7.05 GiB (73%)
Title: ELEKTRI4KA - Kapo
Writing library: x264 core 159 r2991+50 29469ee t_mod_New [all-bit@all X86_64]
Encoding settings: cabac=1 / ref=4 / deblock=1:-3:-3 / analyse=0x3:0x133 / me=umh / subme=10 / psy=1 / fade_compensate=0.00 / psy_rd=0.85:0.00 / mixed_ref=1 / me_range=32 / chroma_me=1 / trellis=2 / 8x8dct=1 / cqm=0 / deadzone=21,11 / fast_pskip=0 / chroma_qp_offset=-2 / threads=12 / lookahead_threads=2 / sliced_threads=0 / nr=0 / decimate=0 / interlaced=0 / bluray_compat=0 / constrained_intra=0 / fgo=0 / bframes=8 / b_pyramid=2 / b_adapt=2 / b_bias=0 / direct=3 / weightb=1 / open_gop=0 / weightp=2 / keyint=250 / keyint_min=23 / scenecut=40 / intra_refresh=0 / rc=crf / mbtree=0 / crf=16.3000 / qcomp=0.60 / qpmin=0:0:0 / qpmax=69:69:69 / qpstep=4 / ip_ratio=1.25 / pb_ratio=1.15 / aq=3:1.00 / aq-sensitivity=10.00 / aq-factor=1.00:1.00:1.00 / aq2=0 / aq3=0
Language: English
Default: Yes
Forced: No

Audio #1
ID: 2
Format: AC-3
Format/Info: Audio Coding 3
Commercial name: Dolby Digital
Codec ID: A_AC3
Duration: 1 h 27 min
Bit rate mode: Constant
Bit rate: 640 kb/s
Channel(s): 6 channels
Channel layout: L R C LFE Ls Rs
Sampling rate: 48.0 kHz
Frame rate: 31.250 FPS (1536 SPF)
Compression mode: Lossy
Stream size: 398 MiB (4%)
Title: DUB (BD EUR) - Kapo
Language: Russian
Service kind: Complete Main
Default: Yes
Forced: No

Audio #2
ID: 3
Format: DTS
Format/Info: Digital Theater Systems
Codec ID: A_DTS
Duration: 1 h 27 min
Bit rate mode: Constant
Bit rate: 768 kb/s
Channel(s): 6 channels
Channel layout: C L R Ls Rs LFE
Sampling rate: 48.0 kHz
Frame rate: 93.750 FPS (512 SPF)
Bit depth: 24 bits
Compression mode: Lossy
Stream size: 478 MiB (5%)
Title: DUB (BD EUR) - Kapo
Language: Russian
Default: No
Forced: No

Audio #3
ID: 4
Format: DTS
Format/Info: Digital Theater Systems
Codec ID: A_DTS
Duration: 1 h 27 min
Bit rate mode: Constant
Bit rate: 1 509 kb/s
Channel(s): 6 channels
Channel layout: C L R Ls Rs LFE
Sampling rate: 48.0 kHz
Frame rate: 93.750 FPS (512 SPF)
Bit depth: 24 bits
Compression mode: Lossy
Stream size: 939 MiB (9%)
Title: AVO (Kyberpunk) - Kapo
Language: Russian
Default: No
Forced: No

Audio #4
ID: 5
Format: AC-3
Format/Info: Audio Coding 3
Commercial name: Dolby Digital
Codec ID: A_AC3
Duration: 1 h 27 min
Bit rate mode: Constant
Bit rate: 640 kb/s
Channel(s): 6 channels
Channel layout: L R C LFE Ls Rs
Sampling rate: 48.0 kHz
Frame rate: 31.250 FPS (1536 SPF)
Compression mode: Lossy
Stream size: 398 MiB (4%)
Title: AVO (Kyberpunk) - Kapo
Language: Russian
Service kind: Complete Main
Default: No
Forced: No

Audio #5
ID: 6
Format: AC-3
Format/Info: Audio Coding 3
Commercial name: Dolby Digital
Codec ID: A_AC3
Duration: 1 h 27 min
Bit rate mode: Constant
Bit rate: 192 kb/s
Channel(s): 2 channels
Channel layout: L R
Sampling rate: 48.0 kHz
Frame rate: 31.250 FPS (1536 SPF)
Compression mode: Lossy
Stream size: 119 MiB (1%)
Title: iTunes - Kapo
Language: Ukrainian
Service kind: Complete Main
Default: No
Forced: No

Audio #6
ID: 7
Format: AC-3
Format/Info: Audio Coding 3
Commercial name: Dolby Digital
Codec ID: A_AC3
Duration: 1 h 27 min
Bit rate mode: Constant
Bit rate: 640 kb/s
Channel(s): 6 channels
Channel layout: L R C LFE Ls Rs
Sampling rate: 48.0 kHz
Frame rate: 31.250 FPS (1536 SPF)
Compression mode: Lossy
Stream size: 398 MiB (4%)
Title: Original
Language: English
Service kind: Complete Main
Default: No
Forced: No

Text #1
ID: 8
Format: UTF-8
Codec ID: S_TEXT/UTF8
Codec ID/Info: UTF-8 Plain Text
Duration: 1 h 19 min
Bit rate: 1 b/s
Count of elements: 39
Stream size: 1.16 KiB (0%)
Title: Forced
Language: Russian
Default: Yes
Forced: Yes

Text #2
ID: 9
Format: UTF-8
Codec ID: S_TEXT/UTF8
Codec ID/Info: UTF-8 Plain Text
Duration: 1 h 19 min
Bit rate: 105 b/s
Count of elements: 1221
Stream size: 61.5 KiB (0%)
Title: Full
Language: Russian
Default: No
Forced: No

Text #3
ID: 10
Format: UTF-8
Codec ID: S_TEXT/UTF8
Codec ID/Info: UTF-8 Plain Text
Duration: 1 h 19 min
Bit rate: 1 b/s
Count of elements: 25
Stream size: 775 Bytes (0%)
Title: Forced
Language: Ukrainian
Default: No
Forced: No

Text #4
ID: 11
Format: UTF-8
Codec ID: S_TEXT/UTF8
Codec ID/Info: UTF-8 Plain Text
Duration: 1 h 25 min
Bit rate: 69 b/s
Count of elements: 1436
Stream size: 43.3 KiB (0%)
Title: Full
Language: English
Default: No
Forced: No

Menu
00:00:00.000: :Chapter 01
00:05:08.558: :Chapter 02
00:10:35.468: :Chapter 03
00:15:46.946: :Chapter 04
00:19:35.257: :Chapter 05
00:25:14.805: :Chapter 06
00:29:25.764: :Chapter 07
00:34:20.558: :Chapter 08
00:39:46.968: :Chapter 09
00:45:01.741: :Chapter 10
00:49:07.611: :Chapter 11
00:53:40.926: :Chapter 12
00:56:36.560: :Chapter 13
01:00:01.014: :Chapter 14
01:03:45.947: :Chapter 15
01:06:02.458: :Chapter 16
01:10:54.584: :Chapter 17
01:18:09.476: :Chapter 18
01:20:21.316: :Chapter 19
01:21:11.325: :Chapter 20
Источник http://listRutor.org

Внимание! AdBlock блокирует показ скриншотов, все вопросы к разработчикам )))
Трекер:  [ 12-Апр-2020 10:40 ]

  

Скачать .torrent

Размер .torrent файла 195 KB


Размер: 9.72 GB
Хэш (hash) релиза: ef400cf5f4d36fed2eec0471fffe08d4d020eb0a
Подписка на обновления:

Торренты, похожие на Семейка Аддамс The Addams Family скачать торрент

Форум Название Автор Размер S L Добавлен
Зарубежные фильмы до 2016 ·· Семейка Аддамс, Ценности семейки Аддамс / The Addams Family, Addams Family Values (Барри Зонненфельд / Barry Sonnenfeld) [1991, 1993, США, фэнтези, комедия, 2xDVD9 (Custom)] MVO + AVO + Original Eng Galfimbul ghost 98387099019.16 GB 0 0 1505073970

23:06

10-Сен-17

Зарубежные фильмы до 2016 ·· Семейка Аддамс, Ценности семейки Аддамс / The Addams Family, Addams Family Values (Барри Зонненфельд / Barry Sonnenfeld) [1991, 1993, Черная комедия, Фэнтези, HDTVRip 720p] 2*MVO + 3*AVO (Михалев, Сербин, Сонькин) + Original Eng Galfimbul ghost 1289728964512.01 GB 0 0 1311318883

10:14

22-Июл-11

Мультфильмы 2016-2020 (Новинки мультфильмов) ·%· Семейка Аддамс / The Addams Family (2019) BDRip-HEVC 1080p | Лицензия Galfimbul ghost 39677948443.7 GB 0 0 1587151321

22:22

17-Апр-20

Мультфильмы 2016-2020 (Новинки мультфильмов) ·%· Семейка Аддамс / The Addams Family (2019) BDRip-AVC | D, А | Лицензия Galfimbul ghost 23395535672.18 GB 0 0 1586706628

18:50

12-Апр-20

Мультфильмы 2016-2020 (Новинки мультфильмов) ·%· Семейка Аддамс / The Addams Family (2019) BDRip-AVC от OlLanDGroup | Лицензия Galfimbul ghost 782044909746 MB 0 0 1586682658

12:10

12-Апр-20

Мультфильмы 2016-2020 (Новинки мультфильмов) ·%· Семейка Аддамс / The Addams Family (2019) Blu-ray EUR 1080p | Лицензия Galfimbul ghost 3379548975931.47 GB 0 0 1586681531

11:52

12-Апр-20

Мультфильмы 2016-2020 (Новинки мультфильмов) ·%· Семейка Аддамс / The Addams Family (2019) BDRip 720p от ELEKTRI4KA | D, A | Лицензия Galfimbul ghost 75099203546.99 GB 0 0 1586677316

10:41

12-Апр-20

Мультфильмы 2016-2020 (Новинки мультфильмов) ·%· Семейка Аддамс / The Addams Family (2019) BDRemux 1080p от селезень | D, A | Лицензия Galfimbul ghost 2614397171524.35 GB 0 0 1586671233

09:00

12-Апр-20

Мультфильмы 2016-2020 (Новинки мультфильмов) ·%· Семейка Аддамс / The Addams Family (2019) UHD BDRemux 2160p от селезень | 4K | HDR | D, A | Лицензия Galfimbul ghost 5181982980148.26 GB 0 0 1586671222

09:00

12-Апр-20

Мультфильмы 2016-2020 (Новинки мультфильмов) ·%· Семейка Аддамс / The Addams Family (2019) BDRip 720p от селезень | Лицензия Galfimbul ghost 39451964083.67 GB 0 0 1586670166

08:42

12-Апр-20

Мультфильмы 2016-2020 (Новинки мультфильмов) ·%· Семейка Аддамс / The Addams Family (2019) BDRip 1080p от селезень | Лицензия Galfimbul ghost 87123806968.11 GB 0 0 1586668891

08:21

12-Апр-20

Мультфильмы 2016-2020 (Новинки мультфильмов) ·· Семейка Аддамс / The Addams Family (2019) HDRip | КПК | iTunes Galfimbul ghost 445344371425 MB 0 0 1583073610

17:40

1-Мар-20

Мультфильмы 2016-2020 (Новинки мультфильмов) ·· Семейка Аддамс / The Addams Family (2019) UHD BDRemux 2160p | HDR | D, А Galfimbul ghost 5056567623747.09 GB 0 0 1582791641

11:20

27-Фев-20

Мультфильмы 2016-2020 (Новинки мультфильмов) ·· Семейка Аддамс / The Addams Family (2019) BDRemux 1080p от селезень | D, A | iTunes Galfimbul ghost 2560036116023.84 GB 0 0 1581883831

23:10

16-Фев-20

Мультфильмы 2016-2020 (Новинки мультфильмов) ·· Семейка Аддамс / The Addams Family (2019) BDRip 1080p от селезень | D, A | iTunes Galfimbul ghost 97684412279.1 GB 0 0 1581882668

22:51

16-Фев-20

Мультфильмы 2016-2020 (Новинки мультфильмов) ·· Семейка Аддамс / The Addams Family (2019) BDRip 720p от селезень | D, A | iTunes Galfimbul ghost 68410208336.37 GB 0 0 1581882660

22:51

16-Фев-20

Мультфильмы 2016-2020 (Новинки мультфильмов) ·· Семейка Аддамс / The Addams Family (2019) BDRip от Twister & ExKinoRay | A Galfimbul ghost 15682961941.46 GB 0 0 1580755211

21:40

3-Фев-20

Мультфильмы 2016-2020 (Новинки мультфильмов) ·· Семейка Аддамс / The Addams Family (2019) BDRip 1080p от селезень | A Galfimbul ghost 93921782038.75 GB 0 0 1580410220

21:50

30-Янв-20

Мультфильмы 2016-2020 (Новинки мультфильмов) ·· Семейка Аддамс / The Addams Family (2019) BDRemux 1080p от селезень | A Galfimbul ghost 2480608771423.1 GB 0 0 1580409032

21:30

30-Янв-20

dpd RU

Еще никто не оставлял запись к записи скачать торрент Семейка Аддамс The Addams Family . Будь первым!

!Обратная связь