Скачать через торрент Спутник Фильм бесплатно в хорошем качестве torrent

Скачивайте на UnionPeer.org фильмы через торрент без регистрации. Новинки кино в хорошем качестве через торрент. На UnionPeer.org можно скачать через торрент фильмы 2014 и 2015 годов. Самые новые фильмы.

Скачать торрент Спутник бесплатно через .torrent фильм мультфильм сериал

Статистика раздачи
Размер:  2.93 GB   |    Зарегистрирован:  1 месяц 7 дней   |    .torrent скачан:  146 раз   |   
Раздают:  2  
 

Скачать Спутник (2020) WEB-DL 1080p через torrent

 
загрузка...
 
Автор Сообщение

Galfimbul ghost

avatar Galfimbul ghost


Название: Спутник
Год выхода: 2020
Жанр: Фантастика, триллер, драма
Режиссер: Егор Абраменко
В ролях: Оксана Акиньшина, Пётр Фёдоров, Фёдор Бондарчук, Антон Васильев, Павел Устинов

О фильме:
СССР, 1983 год. На землю возвращается космический аппарат, но от людей скрывают, что из двух космонавтов живым возвращается только один. Что произошло на борту, остается загадкой, но факты указывают на то, что космонавт столкнулся в полете с новой формой жизни и вернулся на землю не совсем один… Нейрофизиолог Татьяна Климова пытается докопаться до правды и спасти героя, ставшего для нее небезразличным.


Страна: Россия
Студия: Кинокомпания «Водород»
Продолжительность: 01:53:44
Язык: Русский

Файл
Кодек: MPEG-4 AVC
Качество: WEB-DL 1080p
Видео: MPEG-4 AVC, ~3419 Кбит/с, 1920x804
Звук: AC3, 2 ch, 192 Кбит/с
Общее
Формат : Matroska
Версия формата : Version 2
Размер файла : 2,93 Гбайт
Продолжительность : 1 ч. 53 м.
Режим общего битрейта : Переменный
Общий поток : 3685 Кбит/сек
Дата кодирования : UTC 2020-04-22 21:38:46
Программа кодирования : mkvmerge v4.0.0 ('The Stars were mine') сборка от Jun 6 2010 16:18:42
Библиотека кодирования : libebml v1.0.0 + libmatroska v1.0.0

Видео
Идентификатор : 1
Формат : AVC
Формат/Информация : Advanced Video Codec
Профиль формата : High@L4.1
Настройки формата : CABAC / 5 Ref Frames
Параметр CABAC формата : Да
Параметр RefFrames формата : 5 кадров
Параметр GOP формата : M=4, N=50
Идентификатор кодека : V_MPEG4/ISO/AVC
Продолжительность : 1 ч. 53 м.
Вид битрейта : Переменный
Битрейт : 3419 Кбит/сек
Максимальный битрейт : 40,0 Мбит/сек
Ширина : 1920 пикселей
Высота : 804 пикселя
Соотношение сторон : 2,40:1
Режим частоты кадров : Постоянный
Частота кадров : 25,000 кадров/сек
Цветовое пространство : YUV
Субдискретизация насыщенности : 4:2:0
Битовая глубина : 8 бит
Тип развёртки : Прогрессивная
Бит/(Пиксели*Кадры) : 0.089
Размер потока : 2,72 Гбайт (93%)
Язык : Russian
Default : Да
Forced : Нет
Цветовой диапазон : Limited
Основные цвета : BT.709
Характеристики трансфера : BT.709
Коэффициенты матрицы : BT.709

Аудио
Идентификатор : 2
Формат : AC-3
Формат/Информация : Audio Coding 3
Коммерческое название : Dolby Digital
Идентификатор кодека : A_AC3
Продолжительность : 1 ч. 53 м.
Вид битрейта : Постоянный
Битрейт : 192 Кбит/сек
Каналы : 2 канала
ChannelLayout : L R
Частота : 48,0 КГц
Частота кадров : 31,250 кадров/сек (1536 SPF)
Битовая глубина : 16 бит
Метод сжатия : С потерями
Размер потока : 156 Мбайт (5%)
Язык : Russian
ServiceKind : Complete Main
Default : Да
Forced : Нет
Источник http://listRutor.org

Трекер:  [ 23-Апр-2020 12:10 ]

  

Скачать .torrent

Размер .torrent файла 15 KB


Размер: 2.93 GB
Хэш (hash) релиза: 646b715571790bdf92d8f55a3bc3ff0c0a453876
Подписка на обновления:

Торренты, похожие на Спутник скачать торрент

Форум Название Автор Размер S L Добавлен
Мультфильмы до 2016 ·· Спутник Иль Хо и дойная корова / Первый спутник и пятнистая корова / Wooribyeol Ilhowa Eolrukso / The Satellite Girl and Milk Cow (Чан Хён Юн / Jang Hyun-Yun) [2014, анимация, HDRip] Rus Sub Galfimbul ghost 730960802697 MB 0 0 1430830726

15:58

5-Май-15

Российские фильмы 2016-2020 (Новинки русского кино) ·%· Спутник (2020) WEB-DLRip-AVC от New-Team Galfimbul ghost 780264315744 MB 0 0 1588433464

18:31

2-Май-20

Российские фильмы 2016-2020 (Новинки русского кино) ·%· Спутник (2020) WEB-DLRip-AVC от New-Team Galfimbul ghost 15960452421.49 GB 0 0 1588417307

14:01

2-Май-20

Российские фильмы 2016-2020 (Новинки русского кино) ·%· Спутник (2020) WEB-DLRip от Scarabey Galfimbul ghost 15827824641.47 GB 4 0 1587749594

20:33

24-Апр-20

Российские фильмы 2016-2020 (Новинки русского кино) ·%· Спутник (2020) WEB-DLRip от Files-x Galfimbul ghost 16240107521.51 GB 0 0 1587723623

13:20

24-Апр-20

Российские фильмы 2016-2020 (Новинки русского кино) ·%· Спутник (2020) WEB-DLRip-AVC от Files-х Galfimbul ghost 15644792431.46 GB 0 0 1587666644

21:30

23-Апр-20

Российские фильмы 2016-2020 (Новинки русского кино) ·%· Спутник (2020) WEB-DLRip от Generalfilm | КПК Galfimbul ghost 453968689433 MB 0 0 1587660798

19:53

23-Апр-20

Российские фильмы 2016-2020 (Новинки русского кино) ·%· Спутник (2020) WEB-DLRip-AVC от ExKinoRay Galfimbul ghost 781533218745 MB 0 0 1587643882

15:11

23-Апр-20

Российские фильмы 2016-2020 (Новинки русского кино) ·%· Спутник (2020) WEB-DLRip от Portablius Galfimbul ghost 780533760744 MB 0 0 1587636781

13:13

23-Апр-20

Российские фильмы 2016-2020 (Новинки русского кино) ·%· Спутник (2020) WEB-DLRip Galfimbul ghost 784379904748 MB 0 0 1587635488

12:51

23-Апр-20

Российские фильмы 2016-2020 (Новинки русского кино) ·%· Спутник (2020) WEBRip Galfimbul ghost 14641029121.36 GB 0 0 1587621078

08:51

23-Апр-20

Российские фильмы 2016-2020 (Новинки русского кино) ·%· Спутник (2020) WEB-DLRip Galfimbul ghost 21965209602.05 GB 0 0 1587619899

08:31

23-Апр-20

Российские фильмы 2016-2020 (Новинки русского кино) ·%· Спутник (2020) WEB-DLRip-AVC Galfimbul ghost 15657270471.46 GB 0 0 1587619886

08:31

23-Апр-20

Российские фильмы 2016-2020 (Новинки русского кино) ·%· Спутник (2020) WEB-DL 720p от ExKinoRay Galfimbul ghost 27213400642.53 GB 0 0 1587598342

02:32

23-Апр-20

Российские фильмы 2016-2020 (Новинки русского кино) ·%· Спутник (2020) WEBRip 1080p Galfimbul ghost 45260574464.22 GB 3 0 1587594688

01:31

23-Апр-20

Зарубежные фильмы до 2016 ·· Спутник / The Companion / El acompañante (Павел Жиро / Pavel Giroud) [2015, Куба, Панама, Франция, Колумбия, Венесуэла, драма, HDRip] VO ((visanti-vasaer)) + Sub Eng Galfimbul ghost 15055540781.4 GB 0 0 1513414873

12:01

16-Дек-17

Документальные фильмы и телепередачи ·· Спутник. Русское чудо (Алексей Чукарев) [2017, Россия, Документальный, космос, HDTVRip] Galfimbul ghost 787611648751 MB 0 0 1507410978

00:16

8-Окт-17

Документальные фильмы и телепередачи ·· Спутник. Русское чудо (Алексей Чукарев) [2017, Россия, Документальный, космос, HDTV 1080i] Galfimbul ghost 19932824081.86 GB 0 0 1507047473

19:17

3-Окт-17

Документальные фильмы и телепередачи ·· Спутник вместо бомбы (Майя Данилевская) [1997, SATRip] Galfimbul ghost 698873856666 MB 0 0 1476210788

21:33

11-Окт-16

Еще никто не оставлял запись к записи скачать торрент Спутник . Будь первым!

!Обратная связь