Скачать через торрент Подлинная история банды Келли True History of the Kelly Gang Фильм бесплатно в хорошем качестве torrent

Скачивайте на UnionPeer.org фильмы через торрент без регистрации. Новинки кино в хорошем качестве через торрент. На UnionPeer.org можно скачать через торрент фильмы 2014 и 2015 годов. Самые новые фильмы.

Скачать торрент Подлинная история банды Келли True History of the Kelly Gang бесплатно через .torrent фильм мультфильм сериал

Статистика раздачи
Размер:  10.23 GB   |    Зарегистрирован:  1 месяц 6 дней   |    .torrent скачан:  117 раз   |   
Раздают:  1   Качают:  1  
 

Скачать Подлинная история банды Келли / True History of the Kelly Gang (2019) UHD WEB-DL 2160p от селезень | 4K | HDR | iTunes через torrent

 
загрузка...
 
Автор Сообщение

Galfimbul ghost

avatar Galfimbul ghost


Подлинная история банды Келли /True History of the Kelly Gang

Год выхода: 2019
Жанр: Драма, криминал, вестерн, биография
Режиссер: Джастин Курзель
В ролях: Джордж МакКэй, Расселл Кроу, Николас Холт, Эсси Дэвис, Шон Кинэн, Джейкоб Коллинс-Леви, Томасин МакКензи, Чарли Ханнэм, Клаудия Карван, Марлон Уильямс



О фильме: От одного упоминания имени Неда Келли дрожала вся полиция. О его дерзких ограблениях банков слагали легенды, а за его голову была назначена огромная награда. Он один из самых противоречивых персонажей мировой криминальной истории, которого многие считают благородным разбойником и реальным Робином Гудом.

Страна: Австралия, Великобритания, Франция
Студия: Porchlight Films, Daybreak Pictures, Film Victoria
Продолжительность: 02:05:10
Перевод: Дублированный | iTunes

Качество: WEB-DL 2160p
Видео: 3840x2160 at 24.000 fps, MPEG-H HEVC HDR, Video, 10700 kbps avg
Аудио #01: 48 kHz, AC3, 5.1, 384 Kbps | Дублированный | RUS |
Аудио #02: 48 kHz, AAC, 2.0, 124 Kbps | Дублированный | UKR |
Аудио #03: 48 kHz, E-AC3, 5.1, 448 Kbps | Оригинал | ENG |
Субтитры: Русские (Full), английские

General
Unique ID : 270781017470897147994018518335638589592 (0xCBB686E8F0ACCAA38B65C1E61AB9D098)
Complete name : E:Video111True.History.of.the.Kelly.Gang.2019.WEB-DL.2160p.HDR.seleZen.mkv
Format : Matroska
Format version : Version 4
File size : 10.2 GiB
Duration : 2 h 5 min
Overall bit rate : 11.7 Mb/s
Movie name : True History of the Kelly Gang 2019 from селезень
Encoded date : UTC 2020-04-24 01:08:39
Writing application : mkvmerge v40.0.0 ('Old Town Road + Pony') 64-bit
Writing library : libebml v1.3.9 + libmatroska v1.5.2

Video
ID : 1
Format : HEVC
Format/Info : High Efficiency Video Coding
Format profile : Main 10@L5@Main
HDR format : SMPTE ST 2086, HDR10 compatible
Codec ID : V_MPEGH/ISO/HEVC
Duration : 2 h 5 min
Bit rate : 10.7 Mb/s
Width : 3 840 pixels
Height : 2 160 pixels
Display aspect ratio : 16:9
Frame rate mode : Constant
Frame rate : 24.000 FPS
Color space : YUV
Chroma subsampling : 4:2:0
Bit depth : 10 bits
Bits/(Pixel*Frame) : 0.054
Stream size : 9.39 GiB (92%)
Language : English
Default : Yes
Forced : No
Color range : Limited
Color primaries : BT.2020
Transfer characteristics : PQ
Matrix coefficients : BT.2020 non-constant
Mastering display color pri : Display P3
Mastering display luminance : min: 0.0001 cd/m2, max: 1000 cd/m2

Audio #1
ID : 2
Format : AC-3
Format/Info : Audio Coding 3
Commercial name : Dolby Digital
Codec ID : A_AC3
Duration : 2 h 5 min
Bit rate mode : Constant
Bit rate : 384 kb/s
Channel(s) : 6 channels
Channel layout : L R C LFE Ls Rs
Sampling rate : 48.0 kHz
Frame rate : 31.250 FPS (1536 SPF)
Compression mode : Lossy
Stream size : 344 MiB (3%)
Title : iTunes
Language : Russian
Service kind : Complete Main
Default : Yes
Forced : Yes

Audio #2
ID : 3
Format : AAC LC
Format/Info : Advanced Audio Codec Low Complexity
Codec ID : A_AAC-2
Duration : 2 h 5 min
Bit rate : 124 kb/s
Channel(s) : 2 channels
Channel layout : L R
Sampling rate : 44.1 kHz
Frame rate : 43.066 FPS (1024 SPF)
Compression mode : Lossy
Stream size : 111 MiB (1%)
Title : iTunes
Language : Ukrainian
Default : No
Forced : No

Audio #3
ID : 4
Format : E-AC-3
Format/Info : Enhanced AC-3
Commercial name : Dolby Digital Plus
Codec ID : A_EAC3
Duration : 2 h 5 min
Bit rate mode : Constant
Bit rate : 448 kb/s
Channel(s) : 6 channels
Channel layout : L R C LFE Ls Rs
Sampling rate : 48.0 kHz
Frame rate : 31.250 FPS (1536 SPF)
Compression mode : Lossy
Stream size : 401 MiB (4%)
Title : Original
Language : English
Service kind : Complete Main
Default : No
Forced : No

Text #1
ID : 5
Format : UTF-8
Codec ID : S_TEXT/UTF8
Codec ID/Info : UTF-8 Plain Text
Duration : 1 h 58 min
Bit rate : 87 b/s
Count of elements : 1400
Stream size : 76.5 KiB (0%)
Title : Full
Language : Russian
Default : No
Forced : No

Text #2
ID : 6
Format : UTF-8
Codec ID : S_TEXT/UTF8
Codec ID/Info : UTF-8 Plain Text
Duration : 1 h 57 min
Bit rate : 54 b/s
Count of elements : 1562
Stream size : 46.8 KiB (0%)
Title : Full
Language : English
Default : No
Forced : No

Text #3
ID : 7
Format : UTF-8
Codec ID : S_TEXT/UTF8
Codec ID/Info : UTF-8 Plain Text
Duration : 2 h 0 min
Bit rate : 59 b/s
Count of elements : 1742
Stream size : 52.4 KiB (0%)
Title : SDH
Language : English
Default : No
Forced : No
Источник http://listRutor.org

Трекер:  [ 24-Апр-2020 04:40 ]

  

Скачать .torrent

Размер .torrent файла 13 KB


Размер: 10.23 GB
Хэш (hash) релиза: e39a8567ccd26611cb76bdf565752e0470789111
Подписка на обновления:

Торренты, похожие на Подлинная история банды Келли True History of the Kelly Gang скачать торрент

Форум Название Автор Размер S L Добавлен
Зарубежные фильмы 2016-2019 (Новинки зарубежного кино) ·%· Подлинная история банды Келли / True History of the Kelly Gang (2019) WEB-DLRip-AVC | iTunes Galfimbul ghost 23270578302.17 GB 0 0 1587776427

04:00

25-Апр-20

Зарубежные фильмы 2016-2019 (Новинки зарубежного кино) ·%· Подлинная история банды Келли / True History of the Kelly Gang (2019) WEB-DLRip от Scarabey | iTunes Galfimbul ghost 15548764161.45 GB 0 0 1587750696

20:51

24-Апр-20

Зарубежные фильмы 2016-2019 (Новинки зарубежного кино) ·%· Подлинная история банды Келли / True History of the Kelly Gang (2019) WEB-DL 1080p | iTunes Galfimbul ghost 91757534108.55 GB 0 0 1587736215

16:50

24-Апр-20

Зарубежные фильмы 2016-2019 (Новинки зарубежного кино) ·%· Подлинная история банды Келли / True History of the Kelly Gang (2019) WEB-DLRip-AVC от k.e.n & MegaPeer | iTunes Galfimbul ghost 780103139744 MB 0 0 1587735607

16:40

24-Апр-20

Зарубежные фильмы 2016-2019 (Новинки зарубежного кино) ·%· Подлинная история банды Келли / True History of the Kelly Gang (2019) WEB-DL 1080p от селезень | iTunes Galfimbul ghost 45288257344.22 GB 2 0 1587691209

04:20

24-Апр-20

Зарубежные фильмы 2016-2019 (Новинки зарубежного кино) ·%· Подлинная история банды Келли / True History of the Kelly Gang (2019) WEB-DL 1080p | iTunes Galfimbul ghost 44118833054.11 GB 0 0 1587681619

01:40

24-Апр-20

Зарубежные фильмы 2016-2019 (Новинки зарубежного кино) ·%· Подлинная история банды Келли / True History of the Kelly Gang (2019) WEB-DL 720p | iTunes Galfimbul ghost 47137031584.39 GB 2 0 1587678653

00:50

24-Апр-20

Зарубежные фильмы 2016-2019 (Новинки зарубежного кино) ·%· Подлинная история банды Келли / True History of the Kelly Gang (2019) WEB-DLRip от MegaPeer | iTunes Galfimbul ghost 15683461121.46 GB 0 0 1587673832

23:30

23-Апр-20

Зарубежные фильмы 2016-2019 (Новинки зарубежного кино) ·%· Подлинная история банды Келли / True History of the Kelly Gang (2019) WEB-DLRip от MegaPeer | iTunes Galfimbul ghost 23434608642.18 GB 0 0 1587672039

23:00

23-Апр-20

Еще никто не оставлял запись к записи скачать торрент Подлинная история банды Келли True History of the Kelly Gang . Будь первым!

!Обратная связь