Скачать через торрент Вилкинс задаёт вопросы Forky Asks a Question Фильм бесплатно в хорошем качестве torrent

Скачивайте на UnionPeer.org фильмы через торрент без регистрации. Новинки кино в хорошем качестве через торрент. На UnionPeer.org можно скачать через торрент фильмы 2014 и 2015 годов. Самые новые фильмы.

Скачать торрент Вилкинс задаёт вопросы Forky Asks a Question бесплатно через .torrent фильм мультфильм сериал

Статистика раздачи
Размер:  2.22 GB   |    Зарегистрирован:  1 месяц 11 дней   |    .torrent скачан:  73 раза   |   
Раздают:  3  
 

Скачать Вилкинс задаёт вопросы / Forky Asks a Question [S01] (2019) WEBRip 720p | D | Flarrow Films через torrent

 
загрузка...
 
Автор Сообщение

Galfimbul ghost

avatar Galfimbul ghost


Вилкинс задаёт вопросы /Forky Asks a Question

Год выхода: 2019
Жанр: мультфильм, комедия, семейный
Режиссеры: Боб Питерсон
В ролях: Тони Хейл, Боб Питерсон, Джон Ратценбергер, Кристен Шаал, Робин Аткин Даунс, Бонни Хант, Карл Райнер, Уоллес Шоун, Алома Райт

О фильме:
Вилкинс разбирается со сложностями окружающего мира, задаваясь всеми насущными вопросами.



Страна: США
Продолжительность: ~ 00:04:02 (серия)
Перевод: Дублированный (любительский) | Flarrow Films

Файл
Формат: MKV
Кодек: MPEG-4 AVC
Качество: WEBRip 720p
Видео: 1280x720, ~ 8 341 kb/s, 23.976 FPS, 8 bits
Звук: AC-3, 320 kb/s, 2 channel, 48.0 kHz
Субтитры: отсутствуют
1-я серия

General
Unique ID : 196567564039390745995014045303893818029 (0x93E18928154FBB76621505FF3CA67AAD)
Complete name : C:FlarrowForky.Asks.a.Question.S01.Flarrow.FilmsForky.Asks.a.Question.S01E01.mkv
Format : Matroska
Format version : Version 4
File size : 213 MiB
Duration : 3 min 26 s
Overall bit rate mode : Variable
Overall bit rate : 8 657 kb/s
Encoded date : UTC 2020-04-09 13:25:50
Writing application : mkvmerge v32.0.0 ('Astral Progressions') 64-bit
Writing library : libebml v1.3.7 + libmatroska v1.5.0

Video
ID : 1
Format : AVC
Format/Info : Advanced Video Codec
Format profile : Main@L4.1
Format settings : CABAC / 2 Ref Frames
Format settings, CABAC : Yes
Format settings, Reference : 2 frames
Format settings, GOP : M=3, N=23
Codec ID : V_MPEG4/ISO/AVC
Duration : 3 min 26 s
Bit rate mode : Variable
Bit rate : 8 341 kb/s
Maximum bit rate : 12.0 Mb/s
Width : 1 280 pixels
Height : 720 pixels
Display aspect ratio : 16:9
Frame rate mode : Constant
Frame rate : 23.976 (24000/1001) FPS
Color space : YUV
Chroma subsampling : 4:2:0
Bit depth : 8 bits
Scan type : Progressive
Bits/(Pixel*Frame) : 0.377
Stream size : 205 MiB (96%)
Language : English
Default : Yes
Forced : No

Audio
ID : 2
Format : AC-3
Format/Info : Audio Coding 3
Commercial name : Dolby Digital
Codec ID : A_AC3
Duration : 3 min 26 s
Bit rate mode : Constant
Bit rate : 320 kb/s
Channel(s) : 2 channels
Channel layout : L R
Sampling rate : 48.0 kHz
Frame rate : 31.250 FPS (1536 SPF)
Compression mode : Lossy
Stream size : 7.87 MiB (4%)
Service kind : Complete Main
Default : Yes
Forced : No

2-я серия

General
Unique ID : 146723581582937981060039614322584269389 (0x6E61EF162814C4E3ED92DB988937324D)
Complete name : C:FlarrowForky.Asks.a.Question.S01.Flarrow.FilmsForky.Asks.a.Question.S01E02.mkv
Format : Matroska
Format version : Version 4
File size : 142 MiB
Duration : 3 min 5 s
Overall bit rate mode : Variable
Overall bit rate : 6 425 kb/s
Encoded date : UTC 2020-04-09 14:17:39
Writing application : mkvmerge v32.0.0 ('Astral Progressions') 64-bit
Writing library : libebml v1.3.7 + libmatroska v1.5.0

Video
ID : 1
Format : AVC
Format/Info : Advanced Video Codec
Format profile : High@L4
Format settings : CABAC / 2 Ref Frames
Format settings, CABAC : Yes
Format settings, Reference : 2 frames
Format settings, GOP : M=2, N=13
Muxing mode : Container profile=Baseline@3.1
Codec ID : V_MPEG4/ISO/AVC
Duration : 3 min 4 s
Bit rate mode : Variable
Bit rate : 6 107 kb/s
Maximum bit rate : 8 000 kb/s
Width : 1 280 pixels
Height : 720 pixels
Display aspect ratio : 16:9
Frame rate mode : Constant
Frame rate : 25.000 FPS
Color space : YUV
Chroma subsampling : 4:2:0
Bit depth : 8 bits
Scan type : Progressive
Bits/(Pixel*Frame) : 0.265
Stream size : 135 MiB (95%)
Language : English
Default : Yes
Forced : No

Audio
ID : 2
Format : AC-3
Format/Info : Audio Coding 3
Commercial name : Dolby Digital
Codec ID : A_AC3
Duration : 3 min 5 s
Bit rate mode : Constant
Bit rate : 320 kb/s
Channel(s) : 2 channels
Channel layout : L R
Sampling rate : 48.0 kHz
Frame rate : 31.250 FPS (1536 SPF)
Compression mode : Lossy
Stream size : 7.06 MiB (5%)
Service kind : Complete Main
Default : Yes
Forced : No


Примечание: Без интро Flarrow Films

Источник http://listRutor.org

Трекер:  [ 24-Апр-2020 15:10 ]

  

Скачать .torrent

Размер .torrent файла 12 KB


Размер: 2.22 GB
Хэш (hash) релиза: 2f6408ffa47c177d864b18a166252cc8a6228b1f
Подписка на обновления:

Еще никто не оставлял запись к записи скачать торрент Вилкинс задаёт вопросы Forky Asks a Question . Будь первым!

!Обратная связь