Shiina Sora - "Wait, Did You Just Cum Inside Me!?" Hiding A Premature Ejaculation By Picking Up The Pace For Extended Piston Fucking: Double Creampie Without Pulling Out!! UnionPeer.org HD

2015, 2014 UnionPeer.org

.

4.94 GB   |    :  3 1    |    .torrent :  104    |   

   
 

Galfimbul

avatar Galfimbul



"Wait, Did You Just Cum Inside Me!?" Hiding A Premature Ejaculation By Picking Up The Pace For Extended Piston Fucking: Double Creampie Without Pulling Out!! Sora Shiina
「えっ!今、中に出したでしょ?」早漏をゴマかす暴発後の延長ピストンで抜かずの追撃中出し!! 椎名そら


:2020 .
C:
: Creampie, Big Tits, Cuckold
: 01:58:18
:
:
: WANZ-959
: Wanz Factory
:
: Sora Shiina
HD : 1080p
: HDRip
: MP4
: AVC, 1920 pixelsx1080 pixels, 29.960 FPS,5 744 kb/s
: AAC, 48.0 kHz, 48.0 kHz, 256 kb/s

General
Complete name : E:\po\WANZ-956.mp4
Format : MPEG-4
Format profile : Base Media
Codec ID : isom (isom/iso2/avc1/mp41)
File size : 5.02 GiB
Duration : 2 h 0 min
Overall bit rate : 5 971 kb/s
Writing application : Lavf58.38.100

Video
ID : 1
Format : AVC
Format/Info : Advanced Video Codec
Format profile : [email protected]
Format settings : CABAC / 3 Ref Frames
Format settings, CABAC : Yes
Format settings, Reference : 3 frames
Codec ID : avc1
Codec ID/Info : Advanced Video Coding
Duration : 2 h 0 min
Bit rate : 5 744 kb/s
Width : 1 920 pixels
Height : 1 080 pixels
Display aspect ratio : 16:9
Frame rate mode : Variable
Frame rate : 29.970 FPS
Minimum frame rate : 29.960 FPS
Maximum frame rate : 29.970 FPS
Color space : YUV
Chroma subsampling : 4:2:0
Bit depth : 8 bits
Scan type : Progressive
Bits/(Pixel*Frame) : 0.092
Stream size : 4.79 GiB (96%)
Writing library : x264 core 157 r2945 72db437
Encoding settings : cabac=1 / ref=3 / deblock=1:1:0 / analyse=0x1:0x131 / me=hex / subme=7 / psy=1 / psy_rd=0.50:0.00 / mixed_ref=1 / me_range=16 / chroma_me=1 / trellis=1 / 8x8dct=0 / cqm=0 / deadzone=21,11 / fast_pskip=0 / chroma_qp_offset=-2 / threads=12 / lookahead_threads=2 / sliced_threads=0 / nr=0 / decimate=1 / interlaced=0 / bluray_compat=0 / constrained_intra=0 / bframes=3 / b_pyramid=0 / b_adapt=1 / b_bias=0 / direct=1 / weightb=1 / open_gop=0 / weightp=2 / keyint=infinite / keyint_min=60 / scenecut=0 / intra_refresh=0 / rc_lookahead=40 / rc=cbr / mbtree=1 / bitrate=5744 / ratetol=1.0 / qcomp=0.60 / qpmin=10 / qpmax=69 / qpstep=4 / vbv_maxrate=5744 / vbv_bufsize=12000 / nal_hrd=none / filler=0 / ip_ratio=1.41 / aq=1:1.00
mdhd_Duration : 7216851
Codec configuration box : avcC

Audio
ID : 2
Format : AAC LC
Format/Info : Advanced Audio Codec Low Complexity
Codec ID : mp4a-40-2
Duration : 2 h 0 min
Bit rate mode : Constant
Bit rate : 256 kb/s
Channel(s) : 2 channels
Channel layout : L R
Sampling rate : 48.0 kHz
Frame rate : 46.875 FPS (1024 SPF)
Compression mode : Lossy
Stream size : 220 MiB (4%)
Default : Yes



! AdBlock , )))
 ·  , , FAQ-
:  [ 28--2020 00:01 ]

  

.torrent

.torrent 25 KB


: 4.94 GB
(hash) : 69b65b2c2d17383fe858a11847e6084e20149971
··
...

, Shiina Sora - "Wait, Did You Just Cum Inside Me!?" Hiding A Premature Ejaculation By Picking Up The Pace For Extended Piston Fucking: Double Creampie Without Pulling Out!!

S L
(DVD HD Video) / Japanese Movies & SiteRip's (DVD & HD Video) ·· Shiina Sora - "Wait, Did You Just Cum Inside Me!?" Hiding A Premature Ejaculation By Picking Up The Pace For Extended Piston Fucking: Double Creampie Without Pulling Out!! [WANZ-959] (WANZ FACTORY) [cen] [2020 ., Creampie, Schoolgirl, Big Galfimbul 12220059961.14 GB 0 0 1587849287

00:14

26--20

Shiina Sora - "Wait, Did You Just Cum Inside Me!?" Hiding A Premature Ejaculation By Picking Up The Pace For Extended Piston Fucking: Double Creampie Without Pulling Out!! . !

!