Скачать через торрент Джейсон Борн Jason Bourne Фильм бесплатно в хорошем качестве torrent

Скачивайте на UnionPeer.org фильмы через торрент без регистрации. Новинки кино в хорошем качестве через торрент. На UnionPeer.org можно скачать через торрент фильмы 2014 и 2015 годов. Самые новые фильмы.

Скачать торрент Джейсон Борн Jason Bourne бесплатно через .torrent фильм мультфильм сериал

Статистика раздачи
Размер:  9.29 GB   |    Зарегистрирован:  3 года 9 месяцев   |    .torrent скачан:  16 раз   |   

Пиры будут получены при скачивании

 

Скачать Джейсон Борн / Jason Bourne (2016) BDRip-HEVC 1080p от HEVC-CLUB | D через torrent

 
 
Автор Сообщение

Galfimbul

avatar Galfimbul


Джейсон Борн / Jason Bourne

Год выхода: 2016
Страна: США
Студия: Captivate Entertainment, Double Negative, Universal Pictures
Жанр: Боевик, триллер
Продолжительность: 02:03:11

Режиссер: Пол Гринграсс
В ролях: Мэтт Дэймон, Алисия Викандер, Томми Ли Джонс, Венсан Кассель, Джулия Стайлз, Риз Ахмед, Ато Эссонда, Скотт Шеперд, Билл Кэмп, Винцец Кифер

Описание: Хакерская атака серверов ЦРУ поднимает на ноги весь Лэнгли. Объект взлома-архивы "Тредстоуна", проекта по созданию спецагентов, одним из которых был Джейсон Борн.ЦРУ берет след злоумышленницы Никки Парсонс, которая должна привести их к пропавшему Борну. И если амбициозный зам Хизер Ли еще уповает на возврат Джейсона к службе, то планы директора Дьюи далеко не так оптимистичны. К тому же начинает рваться с поводка Калур, гений, в чьей миллиардной соцсети ЦРУ видит источник для сбора данных. Джейсону Борну вновь придется выйти из тени и померяться силами с давними врагами.

Качество: BDRip-HEVC 1080p
Видео: HEVC/x.265, 1920x804, ~9518 Kbps, 10 bit
Аудио 01: AC3, 6 ch, 640 Kbps - Русский, дублированный
Аудио 02: AC3, 6 ch, 640 Kbps - Английский, Оригинал
Субтитры: Русские (форсированные, полные), английские (полные)
Навигация по главам: Есть


<span style="color:black;">
Формат : Matroska
Версия формата : Version 4
Размер файла : 9,29 Гбайт
Продолжительность : 2 ч. 3 м.
Общий поток : 10,8 Мбит/сек
Название фильма : Jason Bourne (2016)
Дата кодирования : UTC 2020-04-28 03:50:36
Программа кодирования : mkvmerge v44.0.0 ('Domino') 64-bit
Библиотека кодирования : libebml v1.3.10 + libmatroska v1.5.2
Обложка : Yes
Attachments : cover005.jpg

Видео
Идентификатор : 1
Формат : HEVC
Формат/Информация : High Efficiency Video Coding
Профиль формата : Main [email protected]@High
Идентификатор кодека : V_MPEGH/ISO/HEVC
Продолжительность : 2 ч. 3 м.
Битрейт : 9518 Кбит/сек
Ширина : 1920 пикселей
Высота : 804 пикселя
Соотношение сторон : 2,40:1
Режим частоты кадров : Постоянный
Частота кадров : 23,976 (24000/1001) кадра/сек
Цветовое пространство : YUV
Субдискретизация насыщенности : 4:2:0
Битовая глубина : 10 бит
Бит/(Пиксели*Кадры) : 0.257
Размер потока : 8,19 Гбайт (88%)
Библиотека кодирования : x265 3.2+5-354901970679:[Windows][clang 8.0.1][64 bit] 10bit
Настройки программы : cpuid=1049583 / frame-threads=5 / numa-pools=4 / wpp / no-pmode / no-pme / no-psnr / no-ssim / log-level=3 / input-csp=1 / input-res=1920x804 / interlace=0 / total-frames=0 / level-idc=41 / high-tier=1 / uhd-bd=0 / ref=5 / allow-non-conformance / no-repeat-headers / annexb / no-aud / no-hrd / info / hash=0 / no-temporal-layers / open-gop / min-keyint=24 / keyint=240 / gop-lookahead=0 / bframes=14 / b-adapt=2 / b-pyramid / bframe-bias=0 / rc-lookahead=40 / lookahead-slices=5 / scenecut=40 / radl=0 / no-splice / no-intra-refresh / ctu=32 / min-cu-size=8 / rect / no-amp / max-tu-size=32 / tu-inter-depth=4 / tu-intra-depth=4 / limit-tu=1 / rdoq-level=1 / dynamic-rd=0.00 / no-ssim-rd / signhide / no-tskip / nr-intra=0 / nr-inter=0 / no-constrained-intra / no-strong-intra-smoothing / max-merge=5 / limit-refs=1 / no-limit-modes / me=3 / subme=7 / merange=57 / temporal-mvp / no-frame-dup / no-hme / weightp / no-weightb / no-analyze-src-pics / deblock=-3:-3 / no-sao / no-sao-non-deblock / rd=4 / selective-sao=0 / early-skip / no-rskip / no-fast-intra / no-tskip-fast / no-cu-lossless / b-intra / no-splitrd-skip / rdpenalty=0 / psy-rd=2.00 / psy-rdoq=1.00 / no-rd-refine / no-lossless / cbqpoffs=0 / crqpoffs=0 / rc=crf / crf=21.0 / qcomp=0.60 / qpstep=4 / stats-write=0 / stats-read=0 / vbv-maxrate=50000 / vbv-bufsize=50000 / vbv-init=0.9 / crf-max=0.0 / crf-min=0.0 / ipratio=1.40 / pbratio=1.30 / aq-mode=3 / aq-strength=1.00 / no-cutree / zone-count=0 / no-strict-cbr / qg-size=32 / no-rc-grain / qpmax=69 / qpmin=0 / no-const-vbv / sar=1 / overscan=0 / videoformat=5 / range=0 / colorprim=2 / transfer=2 / colormatrix=2 / chromaloc=0 / display-window=0 / cll=0,0 / min-luma=0 / max-luma=1023 / log2-max-poc-lsb=8 / vui-timing-info / vui-hrd-info / slices=1 / no-opt-qp-pps / no-opt-ref-list-length-pps / no-multi-pass-opt-rps / scenecut-bias=0.05 / no-opt-cu-delta-qp / no-aq-motion / no-hdr / no-hdr-opt / no-dhdr10-opt / no-idr-recovery-sei / analysis-reuse-level=5 / scale-factor=0 / refine-intra=0 / refine-inter=0 / refine-mv=1 / refine-ctu-distortion=0 / no-limit-sao / ctu-info=0 / no-lowpass-dct / refine-analysis-type=0 / copy-pic=1 / max-ausize-factor=1.0 / no-dynamic-refine / no-single-sei / no-hevc-aq / no-svt / no-field / qp-adaptation-range=1.00
Язык : English
Default : Да
Forced : Нет
Цветовой диапазон : Limited

Аудио #1
Идентификатор : 2
Формат : AC-3
Формат/Информация : Audio Coding 3
Коммерческое название : Dolby Digital
Идентификатор кодека : A_AC3
Продолжительность : 2 ч. 3 м.
Вид битрейта : Постоянный
Битрейт : 640 Кбит/сек
Каналы : 6 каналов
ChannelLayout : L R C LFE Ls Rs
Частота : 48,0 КГц
Частота кадров : 31,250 кадров/сек (1536 SPF)
Метод сжатия : С потерями
Размер потока : 564 Мбайт (6%)
Заголовок : Дубляж
Язык : Russian
Default : Да
Forced : Нет

Аудио #2
Идентификатор : 3
Формат : AC-3
Формат/Информация : Audio Coding 3
Коммерческое название : Dolby Digital
Идентификатор кодека : A_AC3
Продолжительность : 2 ч. 3 м.
Вид битрейта : Постоянный
Битрейт : 640 Кбит/сек
Каналы : 6 каналов
ChannelLayout : L R C LFE Ls Rs
Частота : 48,0 КГц
Частота кадров : 31,250 кадров/сек (1536 SPF)
Метод сжатия : С потерями
Размер потока : 564 Мбайт (6%)
Заголовок : Original
Язык : English
Default : Нет
Forced : Нет

Текст #1
Идентификатор : 4
Формат : UTF-8
Идентификатор кодека : S_TEXT/UTF8
Идентификатор кодека/Информация : UTF-8 Plain Text
Продолжительность : 1 ч. 51 м.
Битрейт : 2 бит/сек
ElementCount : 45
Размер потока : 1,99 Кбайт (0%)
Заголовок : Forced
Язык : Russian
Default : Да
Forced : Да

Текст #2
Идентификатор : 5
Формат : UTF-8
Идентификатор кодека : S_TEXT/UTF8
Идентификатор кодека/Информация : UTF-8 Plain Text
Продолжительность : 1 ч. 53 м.
Битрейт : 65 бит/сек
ElementCount : 940
Размер потока : 54,6 Кбайт (0%)
Заголовок : Full
Язык : Russian
Default : Нет
Forced : Нет

Текст #3
Идентификатор : 6
Формат : UTF-8
Идентификатор кодека : S_TEXT/UTF8
Идентификатор кодека/Информация : UTF-8 Plain Text
Продолжительность : 1 ч. 53 м.
Битрейт : 37 бит/сек
ElementCount : 1038
Размер потока : 30,9 Кбайт (0%)
Заголовок : Full
Язык : English
Default : Нет
Forced : Нет

Меню
00:00:00.000 : :Chapter 1
00:04:04.661 : :Chapter 2
00:08:21.543 : :Chapter 3
00:13:32.687 : :Chapter 4
00:18:28.316 : :Chapter 5
00:24:07.237 : :Chapter 6
00:29:21.259 : :Chapter 7
00:36:15.548 : :Chapter 8
00:42:20.663 : :Chapter 9
00:48:22.441 : :Chapter 10
00:55:12.184 : :Chapter 11
01:01:09.666 : :Chapter 12
01:08:32.483 : :Chapter 13
01:16:23.329 : :Chapter 14
01:24:45.330 : :Chapter 15
01:29:06.550 : :Chapter 16
01:37:52.909 : :Chapter 17
01:44:26.343 : :Chapter 18
01:48:03.727 : :Chapter 19
01:54:01.209 : :Chapter 20
Источник http://listRutor.org

Внимание! AdBlock блокирует показ скриншотов, все вопросы к разработчикам )))
Трекер:  [ 28-Апр-2020 07:20 ]

  

Скачать .torrent

Размер .torrent файла 23 KB


Размер: 9.29 GB
Хэш (hash) релиза: c542de947a01850bb8c49b2878cd8d70ed9476f2
Подписка на обновления:

Торренты, похожие на Джейсон Борн Jason Bourne скачать торрент

Форум Название Автор Размер S L Добавлен
Зарубежные фильмы до 2016 ·· Джейсон Борн / Jason Bourne (Пол Гринграсс / Paul Greengrass) [2016, Великобритания, Китай, США, Боевик, триллер, DVD5 (сжатый)] исх. R2, Dub + Sub Rus + Original Eng Galfimbul 46979993604.38 GB 0 0 1501142767

11:06

27-Июл-17

Зарубежные фильмы 2016-2019 (Новинки зарубежного кино) ·· Джейсон Борн / Jason Bourne (Пол Гринграсс / Paul Greengrass) [2016, Великобритания, Китай, США, боевик, триллер, HDRip] AVO (Гаврилов) Galfimbul 15561461761.45 GB 0 0 1499796109

21:01

11-Июл-17

Зарубежные фильмы 2016-2019 (Новинки зарубежного кино) ·· Джейсон Борн / Jason Bourne (Пол Гринграсс / Paul Greengrass) [2016, США, Великобритания, Китай, боевик, триллер, BDRip] Galfimbul 23475650562.19 GB 0 0 1497364221

17:30

13-Июн-17

Зарубежные фильмы до 2016 ·· Джейсон Борн / Jason Bourne (Пол Гринграсс / Paul Greengrass) [2016, Великобритания, Китай, США, боевик, триллер, BD> DVD9 (Custom)] DUB + DTS + Sub Rus / Eng + Original Eng Galfimbul 84856832007.9 GB 0 0 1485115682

23:08

22-Янв-17

Зарубежные фильмы до 2016 ·· Джейсон Борн / Jason Bourne (Пол Гринграсс / Paul Greengrass) [2016, Великобритания, Китай, США, боевик, триллер, BDRip 720p] Dub + Sub Rus, Ukr, Eng + Original Eng Galfimbul 83717429657.8 GB 0 0 1480618551

21:55

1-Дек-16

Зарубежные фильмы 2016-2019 (Новинки зарубежного кино) ·· Джейсон Борн / Jason Bourne (Пол Гринграсс / Paul Greengrass) [2016, США, Великобритания, Китай, боевик, триллер, BDRip 1080p] Galfimbul 1712487164215.95 GB 0 0 1480410683

12:11

29-Ноя-16

Зарубежные фильмы 2016-2019 (Новинки зарубежного кино) ·· Джейсон Борн / Jason Bourne (Пол Гринграсс / Paul Greengrass) [2016, США, Великобритания, Китай, боевик, триллер, BDRip 720p] Galfimbul 89705213848.35 GB 0 0 1480410676

12:11

29-Ноя-16

Зарубежные фильмы 2016-2019 (Новинки зарубежного кино) ·· Джейсон Борн / Jason Bourne (Пол Гринграсс / Paul Greengrass) [2016, США, Великобритания, Китай, боевик, триллер, BDRip] Dub Galfimbul 15677808641.46 GB 0 0 1480052819

08:46

25-Ноя-16

Зарубежные фильмы 2016-2019 (Новинки зарубежного кино) ·· Джейсон Борн / Jason Bourne (Пол Гринграсс / Paul Greengrass) [2016, Великобритания, Китай, США, боевик, триллер, BDRip-AVC] Dub Galfimbul 781198589745 MB 0 0 1479985197

13:59

24-Ноя-16

Зарубежные фильмы до 2016 ·· Джейсон Борн / Jason Bourne (Пол Гринграсс / Paul Greengrass) [2016, Великобритания, Китай, США, боевик, триллер, BDRip 1080p] Dub (Лицензия, Blu-ray CEE) + Sub Rus, Eng + Original Eng Galfimbul 1541468322514.36 GB 0 0 1479813056

14:10

22-Ноя-16

Зарубежные фильмы до 2016 ·· Джейсон Борн / Jason Bourne (Пол Гринграсс / Paul Greengrass) [2016, Великобритания, Китай, США, боевик, триллер, Blu-ray disc 1080p] [CEE] Dub + Sub Rus, Eng + Original Eng Galfimbul 4865884537045.32 GB 0 0 1479664310

20:51

20-Ноя-16

Зарубежные фильмы 2016-2019 (Новинки зарубежного кино) ·· Джейсон Борн / Jason Bourne (Пол Гринграсс / Paul Greengrass) [2016, США, Великобритания, Китай, боевик, триллер, BDRip] Dub + Original + Sub (rus, eng) Galfimbul 23549612052.19 GB 0 0 1479654462

18:07

20-Ноя-16

Зарубежные фильмы 2016-2019 (Новинки зарубежного кино) ·· Джейсон Борн / Jason Bourne (Пол Гринграсс / Paul Greengrass) [2016, США, Великобритания, Китай, боевик, триллер, HDRip] Dub Galfimbul 15561461761.45 GB 0 0 1479582364

22:06

19-Ноя-16

Зарубежные фильмы 2016-2019 (Новинки зарубежного кино) ·· Джейсон Борн / Jason Bourne (Пол Гринграсс / Paul Greengrass) [2016, Великобритания, Китай, США, боевик, триллер, BDRip-AVC] Dub + Original + Sub (rus, eng) Galfimbul 23384693652.18 GB 0 0 1479582353

22:05

19-Ноя-16

Трейлеры и дополнительные материалы ·· Джейсон Борн / Jason Bourne (Пол Гринграсс / Paul Greengrass) [2016, Боевик | Триллер, BDRip 720p] дополнительные материалы Galfimbul 14757629621.37 GB 0 0 1479548460

12:41

19-Ноя-16

Зарубежные фильмы 2016-2019 (Новинки зарубежного кино) ·· Джейсон Борн / Jason Bourne (Пол Гринграсс / Paul Greengrass) [2016, США, Боевик, триллер, BDRip 720p] Лицензия Galfimbul 84843701777.9 GB 0 0 1479410212

22:16

17-Ноя-16

Зарубежные фильмы 2016-2019 (Новинки зарубежного кино) ·· Джейсон Борн / Jason Bourne (Пол Гринграсс / Paul Greengrass) [2016, США, Боевик, триллер, BDRip 1080p] Лицензия Galfimbul 1541468322514.36 GB 0 0 1479408114

21:41

17-Ноя-16

Зарубежные фильмы 2016-2019 (Новинки зарубежного кино) ·· Джейсон Борн / Jason Bourne (Пол Гринграсс / Paul Greengrass) [2016, США, Боевик, триллер, BDRip 1080p] Line Galfimbul 95656650038.91 GB 0 0 1479383177

14:46

17-Ноя-16

Зарубежные фильмы 2016-2019 (Новинки зарубежного кино) ·· Джейсон Борн / Jason Bourne (Пол Гринграсс / Paul Greengrass) [2016, США, Боевик, триллер, BDRip 720p] Line Galfimbul 60438844315.63 GB 0 0 1479381068

14:11

17-Ноя-16

Еще никто не оставлял запись к записи скачать торрент Джейсон Борн Jason Bourne . Будь первым!

!Обратная связь