Скачать через торрент Последняя фантазия Akharin Dastan Фильм бесплатно в хорошем качестве torrent

Скачивайте на UnionPeer.org фильмы через торрент без регистрации. Новинки кино в хорошем качестве через торрент. На UnionPeer.org можно скачать через торрент фильмы 2014 и 2015 годов. Самые новые фильмы.

Скачать торрент Последняя фантазия Akharin Dastan бесплатно через .torrent фильм мультфильм сериал

Статистика раздачи
Размер:  1.46 GB   |    Зарегистрирован:  1 месяц 2 дня   |    .torrent скачан:  129 раз   |   
Раздают:  1  
 

Скачать Последняя фантазия / Akharin Dastan / The Last Fiction (2018) WEB-DLRip-AVC | iTunes через torrent

 
загрузка...
 
Автор Сообщение

Galfimbul ghost

avatar Galfimbul ghost


«But are not the dreams of poets and the tales of travelers notoriously false?»

Последняя фантазия /Akharin Dastan / The Last Fiction

Год выхода: 2018
Жанр: Мультфильм, фэнтези, драма, приключения, история
Режиссер: Асхан Рагозар
Роли озвучивают: Лейла Хатами, Хамед Бехдад, Баран Косари, Бенхамин Натан-Серио, Шагайе Фарахани, Джо Льюис, Асхан Хатиби, Тина Пакраван, Банипал Шомун, Мелика Шарифинья

О фильме:
После победы над миром Пустоты царь Персии решает уничтожить дьявола. Он оставляет власть принцу Захаку. Но зло вселяется в душу Захака. Недавние кошмары принца преследуют его и рождают предсказание о том, что молодой человек, отца которого Захак убил когда-то, свергнет нового правителя и восстановит мир в царстве. Закончится ли вечная битва между тьмой и светом?




Страна: Иран
Студия: 7Sky Animation, Hoorakhsh studios
Продолжительность: 01:40:06
Перевод:
• Профессиональный (полное дублирование) | iTunes

Файл
Качество: WEB-DLRip-AVC
Формат: MKV
Кодек: MPEG-4 AVC
Видео: 1024x576 (16:9), 24 fps, MPEG-4 AVC ~ 1700 Kbps avg, 0.120 bit/pixel
Аудио: AC3, 48 kHz, 6 ch, ~384.00 kbps avg | русский | iTunes
Субтитры: Отсутствуют
Общее
Уникальный идентификатор : 270793424440294004046795033365108390693 (0xCBB8EA9EE8EE68DC98CAA46B54567B25)
Полное имя : The.Last.Fiction.2018.WEB-DLRip.1.46Gb.x264.mkv
Формат : Matroska
Версия формата : Version 4
Размер файла : 1,46 Гбайт
Продолжительность : 1 ч. 40 м.
Общий поток : 2091 Кбит/сек
Название фильма : Последняя фантазия / Akharin Dastan (2018)
Дата кодирования : UTC 2020-04-28 05:57:13
Программа кодирования : mkvmerge v41.0.0 ('Smarra') 64-bit
Библиотека кодирования : libebml v1.3.9 + libmatroska v1.5.2
Обложка : Yes
Attachments : cover.png

Видео
Идентификатор : 1
Формат : AVC
Формат/Информация : Advanced Video Codec
Профиль формата : High@L4.1
Настройки формата : CABAC / 9 Ref Frames
Параметр CABAC формата : Да
Параметр RefFrames формата : 9 кадров
Идентификатор кодека : V_MPEG4/ISO/AVC
Продолжительность : 1 ч. 40 м.
Битрейт : 1700 Кбит/сек
Ширина : 1024 пикселя
Высота : 576 пикселей
Соотношение сторон : 16:9
Режим частоты кадров : Постоянный
Частота кадров : 24,000 кадра/сек
Цветовое пространство : YUV
Субдискретизация насыщенности : 4:2:0
Битовая глубина : 8 бит
Тип развёртки : Прогрессивная
Бит/(Пиксели*Кадры) : 0.120
Размер потока : 1,19 Гбайт (81%)
Заголовок : #stillet
Библиотека кодирования : x264 core 152 r2851bm ba24899
Настройки программы : cabac=1 / ref=9 / deblock=1:-3:-3 / analyse=0x3:0x113 / me=umh / subme=11 / psy=1 / psy_rd=1.00:0.15 / mixed_ref=1 / me_range=32 / chroma_me=1 / trellis=2 / 8x8dct=1 / cqm=0 / deadzone=21,11 / fast_pskip=0 / chroma_qp_offset=-3 / threads=8 / lookahead_threads=3 / sliced_threads=0 / nr=0 / decimate=0 / interlaced=0 / bluray_compat=0 / constrained_intra=0 / bframes=11 / b_pyramid=2 / b_adapt=2 / b_bias=0 / direct=3 / weightb=1 / open_gop=0 / weightp=2 / keyint=240 / keyint_min=24 / scenecut=40 / intra_refresh=0 / rc=2pass / mbtree=0 / bitrate=1700 / ratetol=1.0 / qcomp=0.60 / qpmin=0 / qpmax=69 / qpstep=4 / cplxblur=20.0 / qblur=0.5 / ip_ratio=1.40 / pb_ratio=1.30 / aq=1:1.00
Язык : English
Default : Да
Forced : Нет

Аудио
Идентификатор : 2
Формат : AC-3
Формат/Информация : Audio Coding 3
Коммерческое название : Dolby Digital
Идентификатор кодека : A_AC3
Продолжительность : 1 ч. 40 м.
Вид битрейта : Постоянный
Битрейт : 384 Кбит/сек
Каналы : 6 каналов
ChannelLayout : L R C LFE Ls Rs
Частота : 48,0 КГц
Частота кадров : 31,250 кадров/сек (1536 SPF)
Метод сжатия : С потерями
Размер потока : 275 Мбайт (18%)
Заголовок : iTunes
Язык : Russian
Default : Да
Forced : Нет

Меню
00:00:00.000 : en:Глава 1
00:07:25.083 : en:Глава 2
00:14:21.874 : en:Глава 3
00:21:05.999 : en:Глава 4
00:28:11.790 : en:Глава 5
00:35:05.165 : en:Глава 6
00:43:14.206 : en:Глава 7
00:50:52.122 : en:Глава 8
00:56:44.413 : en:Глава 9
01:04:14.246 : en:Глава 10
01:12:14.579 : en:Глава 11
01:19:12.079 : en:Глава 12
01:27:14.287 : en:Глава 13
01:33:36.828 : en:Глава 14
Источник http://listRutor.org

Трекер:  [ 28-Апр-2020 09:20 ]

  

Скачать .torrent

Размер .torrent файла 15 KB


Размер: 1.46 GB
Хэш (hash) релиза: 5a3c65bb3e63b4880f05905d6e17a3dfbd332aa9
Подписка на обновления:

Торренты, похожие на Последняя фантазия Akharin Dastan скачать торрент

Форум Название Автор Размер S L Добавлен
Мультфильмы 2016-2020 (Новинки мультфильмов) ·%· Последняя фантазия / Akharin Dastan / The Last Fiction (2018) WEB-DL 1080p | iTunes Galfimbul ghost 40280387733.75 GB 3 0 1588341096

16:51

1-Май-20

Еще никто не оставлял запись к записи скачать торрент Последняя фантазия Akharin Dastan . Будь первым!

!Обратная связь