Скачать порно через торрент Tsugumomo UnionPeer.org бесплатно онлайн HD качество

Скачать новое порно 2015, 2014 новинки через торрент UnionPeer.org

Порно торрент бесплатно ЮнионПир.орг

Статистика раздачи
Размер:  1.53 GB   |    Зарегистрирован:  3 года 10 месяцев   |    .torrent скачан:  179 раз   |   

Пиры будут получены при скачивании

 

Скачать Tsugumomo (2020) OVA / Цугумомо (2020) ОВА (Kuraya Ryouichi, Zero-G, Toei Video) (ep. 1 of 1) [ecchi] [2020, school, pantsu, garem, big breast, small breast, DVD5] [jap] через torrent

 
 
Автор Сообщение

Galfimbul

avatar Galfimbul


Tsugumomo (2020) OVA
つぐもも (2020)
Цугумомо (2020) ОВА


Год выпуска: 2020
Жанр: school, pantsu, garem, big breast, small breast
Серии: ep. 1 of 1
Продолжительность: 22mn
Цензура: Этти - легкая эротика

Озвучка: Японская оригинальная

Режиссер: Kuraya Ryouichi
Автор оригинала: Hamada Yoshikazu
Студия: Zero-G, Toei Video

Описание: The OVA features six "slightly ecchi episodes that can''t be broadcast on TV."
Note 1: A short slightly ecchi episode partially founded through a crowdfunding campaign.
Note 2: Bundled with the manga''s 24th compiled book volume.

anidb

Качество видео: DVD5
Формат видео: DVD Video
Видео: MPEG 2, 720-480, 4-3, 29.97 fps, 9000 Kbps
Аудио: jap, AC-3, Stereo, 48.0 KHz, 384 Kbps

General
Unique ID : 152050748674057842488708221550291777767 (0x7263E8B3D119A06DC3D4922F614AF8E7)
Complete name : Tsugumomo_(2020)_OVA.mkv
Format : Matroska
Format version : Version 2
File size : 1.46 GiB
Duration : 22 min 19 s
Overall bit rate mode : Constant
Overall bit rate : 9 389 kb/s
Encoded date : UTC 2020-04-29 13:17:08
Writing application : MakeMKV v1.14.5 win(x64-release)
Writing library : libmakemkv v1.14.5 (1.3.5/1.4.7) win(x64-release)

Video
ID : 1
ID in the original source medium : 224 (0xE0)
Format : MPEG Video
Format version : Version 2
Format profile : Main@Main
Format settings : CustomMatrix / BVOP
Format settings, BVOP : Yes
Format settings, Matrix : Custom
Format settings, GOP : Variable
Codec ID : V_MPEG2
Codec ID/Info : MPEG 1 or 2 Video
Duration : 22 min 19 s
Bit rate mode : Constant
Bit rate : 9 000 kb/s
Width : 720 pixels
Height : 480 pixels
Display aspect ratio : 16:9
Frame rate mode : Variable
Frame rate : 23.976 (24000/1001) FPS
Color space : YUV
Chroma subsampling : 4:2:0
Bit depth : 8 bits
Scan type : Progressive
Scan order : 2:3 Pulldown
Compression mode : Lossy
Bits/(Pixel*Frame) : 1.086
Time code of first frame : 01:00:00:00
Time code source : Group of pictures header
GOP, Open/Closed : Open
GOP, Open/Closed of first frame : Closed
Stream size : 1.40 GiB (96%)
Language : English
Default : No
Forced : No
Original source medium : DVD-Video

Audio
ID : 2
ID in the original source medium : 189 (0xBD)128 (0x80)
Format : AC-3
Format/Info : Audio Coding 3
Commercial name : Dolby Digital
Codec ID : A_AC3
Duration : 22 min 19 s
Bit rate mode : Constant
Bit rate : 384 kb/s
Channel(s) : 2 channels
Channel layout : L R
Sampling rate : 48.0 kHz
Frame rate : 31.250 FPS (1536 SPF)
Compression mode : Lossy
Stream size : 61.3 MiB (4%)
Title : Stereo
Language : Japanese
Service kind : Complete Main
Default : Yes
Forced : No
Original source medium : DVD-Video

Menu
00:00:00.000 : en:Chapter 01
00:08:00.513 : en:Chapter 02
00:10:54.820 : en:Chapter 03
00:13:58.270 : en:Chapter 04
00:15:57.623 : en:Chapter 05
00:17:38.223 : en:Chapter 06
00:20:40.072 : en:Chapter 07


Внимание! AdBlock блокирует показ скриншотов, все вопросы к разработчикам )))
Трекер:  [ 29-Апр-2020 16:43 ]

  

Скачать .torrent

Размер .torrent файла 16 KB


Размер: 1.53 GB
Хэш (hash) релиза: 957973b309c970a2333e0dcbd5a618c4063267f2

Торренты, похожие на Tsugumomo скачать торрент

Форум Название Автор Размер S L Добавлен
Хентай: основной подраздел / Hentai: main subsection ·· Tsugumomo (2020) OVA / Цугумомо (2020) ОВА (Kuraya Ryouichi, Zero-G, Toei Video) (ep. 1 of 1) [ecchi] [2020, school, pantsu, garem, big breast, small breast, DVDRip] [jap / rus / eng] [upscale - 720p] Galfimbul 707170335674 MB 0 0 1588165812

16:10

29-Апр-20

Еще никто не оставлял запись к записи скачать торрент Tsugumomo . Будь первым!

!Обратная связь