Ai Sayama - Big Titted Married Neighbor Comes Home Late At Night And Enters My Apartment By Mistake She Thinks Im Her Husband And Lets Me Cum Inside Of Her! UnionPeer.org HD

2015, 2014 UnionPeer.org

.

5.14 GB   |    :  3 1    |    .torrent :  135    |   

   
 

Galfimbul

avatar Galfimbul



Big Titted Married Neighbor Comes Home Late At Night And Enters My Apartment By Mistake She Thinks I''m Her Husband And Lets Me Cum Inside Of Her!
喝醉回家的邻居巨乳人妻佐山爱误入空调已坏的我的房间把我当作老公汗水淋漓的内射做爱


:2020 .
C:
: Big Tits, Creampie, Rimming
: 01:58:44
:
:
: MEYD-576
: Tameike Goro
:
: Ai Sayama
HD : 1080p
: HDRip
: MP4
: AVC, 1920 pixelsx1080 pixels, 29.960 FPS,6000kb/s
: AAC, 48.0 kHz, 48.0 kHz, 195 kb/s

General
Complete name : E:\po\MEYD-576.mp4
Format : MPEG-4
Format profile : Base Media
Codec ID : isom (isom/iso2/avc1/mp41)
File size : 5.14 GiB
Duration : 1 h 58 min
Overall bit rate mode : Variable
Overall bit rate : 6 196 kb/s
Writing application : Lavf58.35.101

Video
ID : 1
Format : AVC
Format/Info : Advanced Video Codec
Format profile : [email protected]
Format settings : CABAC / 4 Ref Frames
Format settings, CABAC : Yes
Format settings, Reference : 4 frames
Codec ID : avc1
Codec ID/Info : Advanced Video Coding
Duration : 1 h 58 min
Bit rate : 6 000 kb/s
Width : 1 920 pixels
Height : 1 080 pixels
Display aspect ratio : 16:9
Frame rate mode : Variable
Frame rate : 29.970 (29970/1000) FPS
Minimum frame rate : 5.309 FPS
Maximum frame rate : 29.970 FPS
Color space : YUV
Chroma subsampling : 4:2:0
Bit depth : 8 bits
Scan type : Progressive
Bits/(Pixel*Frame) : 0.097
Stream size : 4.97 GiB (97%)
Writing library : x264 core 155 r2901 7d0ff22
Encoding settings : cabac=1 / ref=1 / deblock=1:0:0 / analyse=0x3:0x113 / me=hex / subme=2 / psy=1 / psy_rd=1.00:0.00 / mixed_ref=0 / me_range=16 / chroma_me=1 / trellis=0 / 8x8dct=1 / cqm=0 / deadzone=21,11 / fast_pskip=1 / chroma_qp_offset=0 / threads=18 / lookahead_threads=6 / sliced_threads=0 / nr=0 / decimate=1 / interlaced=0 / bluray_compat=0 / constrained_intra=0 / bframes=3 / b_pyramid=2 / b_adapt=1 / b_bias=0 / direct=1 / weightb=1 / open_gop=0 / weightp=1 / keyint=250 / keyint_min=25 / scenecut=40 / intra_refresh=0 / rc_lookahead=10 / rc=abr / mbtree=1 / bitrate=6000 / ratetol=1.0 / qcomp=0.60 / qpmin=0 / qpmax=69 / qpstep=4 / ip_ratio=1.40 / aq=1:1.00
Codec configuration box : avcC

Audio
ID : 2
Format : AAC LC
Format/Info : Advanced Audio Codec Low Complexity
Codec ID : mp4a-40-2
Duration : 1 h 58 min
Bit rate mode : Variable
Bit rate : 192 kb/s
Maximum bit rate : 195 kb/s
Channel(s) : 2 channels
Channel layout : L R
Sampling rate : 48.0 kHz
Frame rate : 46.875 FPS (1024 SPF)
Compression mode : Lossy
Stream size : 163 MiB (3%)
Default : Yes
Alternate group : 1


! AdBlock , )))
 ·  , , FAQ-
:  [ 01--2020 06:50 ]

  

.torrent

.torrent 26 KB


: 5.14 GB
(hash) : 585f7e29b722c94480f6833e9393c65ed808661a
··
...

Ai Sayama - Big Titted Married Neighbor Comes Home Late At Night And Enters My Apartment By Mistake She Thinks Im Her Husband And Lets Me Cum Inside Of Her! . !

!