Скачать через торрент Кочегар Фильм бесплатно в хорошем качестве torrent

Скачивайте на UnionPeer.org фильмы через торрент без регистрации. Новинки кино в хорошем качестве через торрент. На UnionPeer.org можно скачать через торрент фильмы 2014 и 2015 годов. Самые новые фильмы.

Скачать торрент Кочегар бесплатно через .torrent фильм мультфильм сериал

Статистика раздачи
Размер:  770 MB   |    Зарегистрирован:  29 дней   |    .torrent скачан:  62 раза   |   

Пиры будут получены при скачивании

 

Скачать Кочегар (2010) WEBRip-AVC от ExKinoRay через torrent

 
загрузка...
 
Автор Сообщение

Galfimbul ghost

avatar Galfimbul ghost


Название: Кочегар
Год выпуска: 2010
Жанр: Драма, криминал
Режиссер: Алексей Балабанов
В ролях: Михаил Скрябин , Александр Мосин , Юрий Матвеев , Аида Тумутова , Анна Коротаева , Вячеслав Тельнов , Вячеслав Павлють , Алина Политова , Варвара Белокурова , Пётр Семак , Роман Бурёнков , Саян Монгуш , Филипп Дьячков , Валерий Рыбин , Олег Корытин , Кирилл Комлев , Александр Гаркушенко , Юлия Мен , Виктория Монгуш...

О фильме:
«Кочегар» — криминальная драма от режиссера Алексея Балабанова. В Санкт-Петербурге середины 90-х годов отставной майор Якут, ветеран Афганистана, работает в кочегарке и в свободное время на старенькой печатной машинке пишет рассказ. Затворника-кочегара часто посещают самые разные гости: бандиты, бывшие сослуживцы и даже дети. Однако размеренная жизнь майора меняется, когда убивают его дочь.



Страна: Россия
Студия: Кинокомпания CTB
Продолжительность: 01:23:54
Язык: Русский

Файл
Формат: MKV
Качество: WEBRip-AVC
Видео: MPEG-4 AVC, 736x398, - 1206 Кбит/с
Аудио: AAC-HE, 2 ch, - 76 Кбит/с
Субтитры: Нет
Общее
Уникальный идентификатор : 252535858983301828393777493588400495921 (0xBDFCA32517E49F83EB3F521A4AC55D31)
Полное имя : D:MOVIESKochegar.2010.WEBRip-AVC.ExKinoRay.mkv
Формат : Matroska
Версия формата : Version 4
Размер файла : 770 Мбайт
Продолжительность : 1 ч. 24 м.
Общий поток : 1 282 Кбит/сек
Дата кодирования : UTC 2020-05-01 10:01:28
Программа кодирования : mkvmerge v45.0.0 ('Heaven in Pennies') 64-bit
Библиотека кодирования : libebml v1.3.10 + libmatroska v1.5.2

Видео
Идентификатор : 1
Формат : AVC
Формат/Информация : Advanced Video Codec
Профиль формата : High@L4.1
Настройки формата : CABAC / 11 Ref Frames
Параметр CABAC формата : Да
Параметр RefFrames формата : 11 кадров
Идентификатор кодека : V_MPEG4/ISO/AVC
Продолжительность : 1 ч. 23 м.
Битрейт : 1 206 Кбит/сек
Ширина : 736 пикселей
Высота : 398 пикселей
Соотношение сторон : 1,85:1
Режим частоты кадров : Постоянный
Частота кадров : 25,000 кадров/сек
Цветовое пространство : YUV
Субдискретизация насыщенности : 4:2:0
Битовая глубина : 8 бит
Тип развёртки : Прогрессивная
Бит/(Пиксели*Кадры) : 0.165
Размер потока : 723 Мбайт (94%)
Библиотека кодирования : x264 core 160 r3000 33f9e14
Настройки программы : cabac=1 / ref=11 / deblock=1:-3:-3 / analyse=0x3:0x133 / me=umh / subme=10 / psy=1 / psy_rd=1.05:0.14 / mixed_ref=1 / me_range=32 / chroma_me=1 / trellis=2 / 8x8dct=1 / cqm=0 / deadzone=21,11 / fast_pskip=0 / chroma_qp_offset=-3 / threads=6 / lookahead_threads=1 / sliced_threads=0 / nr=0 / decimate=0 / interlaced=0 / bluray_compat=0 / constrained_intra=0 / bframes=14 / b_pyramid=2 / b_adapt=2 / b_bias=0 / direct=3 / weightb=1 / open_gop=0 / weightp=2 / keyint=250 / keyint_min=25 / scenecut=40 / intra_refresh=0 / rc=2pass / mbtree=0 / bitrate=1206 / ratetol=1.0 / qcomp=0.60 / qpmin=0 / qpmax=69 / qpstep=4 / cplxblur=20.0 / qblur=0.5 / ip_ratio=1.40 / pb_ratio=1.30 / aq=1:1.00
Default : Да
Forced : Нет

Аудио
Идентификатор : 2
Формат : AAC LC SBR
Формат/Информация : Advanced Audio Codec Low Complexity with Spectral Band Replication
Коммерческое название : HE-AAC
Настройки формата : Explicit
Идентификатор кодека : A_AAC-2
Продолжительность : 1 ч. 24 м.
Битрейт : 76,0 Кбит/сек
Каналы : 2 канала
Channel layout : L R
Частота : 48,0 КГц
Частота кадров : 23,438 кадра/сек (2048 SPF)
Метод сжатия : С потерями
Задержка видео : 31 мс.
Размер потока : 45,7 Мбайт (6%)
Язык : Russian
Default : Да
Forced : Нет
Источник http://listRutor.org

Трекер:  [ 01-Май-2020 13:10 ]

  

Скачать .torrent

Размер .torrent файла 15 KB


Размер: 770 MB
Хэш (hash) релиза: f747f14519f92130d1c7b77dd1fecb8ec4286cb0
Подписка на обновления:

Торренты, похожие на Кочегар скачать торрент

Форум Название Автор Размер S L Добавлен
Российские фильмы до 2016 ·· Кочегар (Алексей Балабанов) [2010, драма, криминал, DVDRip-AVC] Galfimbul ghost 15623983671.46 GB 0 0 1365683360

15:29

11-Апр-13

Российские фильмы до 2016 ·· Кочегар (Алексей Балабанов) [2010, драма, криминал, DVDRip] Galfimbul ghost 15639224321.46 GB 0 0 1365683318

15:28

11-Апр-13

Российские фильмы до 2016 ·· Кочегар (Алексей Балабанов) [2010, драма, криминал, DVD5] MaTaDoRe 45071441924.2 GB 0 0 1288984031

22:07

5-Ноя-10

Еще никто не оставлял запись к записи скачать торрент Кочегар . Будь первым!

!Обратная связь