Скачать через торрент Последняя фантазия Akharin Dastan Фильм бесплатно в хорошем качестве torrent

Скачивайте на UnionPeer.org фильмы через торрент без регистрации. Новинки кино в хорошем качестве через торрент. На UnionPeer.org можно скачать через торрент фильмы 2014 и 2015 годов. Самые новые фильмы.

Скачать торрент Последняя фантазия Akharin Dastan бесплатно через .torrent фильм мультфильм сериал

Статистика раздачи
Размер:  3.75 GB   |    Зарегистрирован:  29 дней   |    .torrent скачан:  51 раз   |   
Раздают:  2  
 

Скачать Последняя фантазия / Akharin Dastan / The Last Fiction (2018) WEB-DL 1080p | iTunes через torrent

 
загрузка...
 
Автор Сообщение

Galfimbul ghost

avatar Galfimbul ghost


Информация
Последняя фантазия /Akharin Dastan / The Last Fiction

Год выхода: 2018
Жанр: мультфильм, фэнтези, драма, приключения, история
Режиссер: Асхан Рагозар
В ролях: Лейла Хатами, Хамед Бехдад, Баран Косари, Бенхамин Натан-Серио, Шагайе Фарахани, Джо Льюис, Асхан Хатиби, Тина Пакраван, Банипал Шомун, Мелика Шарифинья

Описание: После победы над миром Пустоты царь Персии решает уничтожить дьявола. Он оставляет власть принцу Захаку. Но зло вселяется в душу Захака. Недавние кошмары принца преследуют его и рождают предсказание о том, что молодой человек, отца которого Захак убил когда-то, свергнет нового правителя и восстановит мир в царстве. Закончится ли вечная битва между тьмой и светом?



Выпущено: Иран / 7Sky Animation, Hoorakhsh Studios
Продолжительность: 01:40:06
Озвучивание: Дублированное | iTunes

Файл
Формат: MKV
Качество: WEB-DL 1080p
Видео: AVC, 4974 Kb/s, 1920x1080
Аудио: Russian: 48 kHz, AC3 Dolby Digital, 3/2 (L, C, R, l, r) + LFE ch, ~384 Kbps
Субтитры: Нет
Дополнительно: Сохранены оригинальные чаптеры.
Video
ID: 1
Format: AVC
Format/Info: Advanced Video Codec
Format profile: High@L4
Format settings: CABAC / 4 Ref Frames
Format settings, CABAC: Yes
Format settings, Reference: 4 frames
Format settings, GOP: N=1
Codec ID: V_MPEG4/ISO/AVC
Duration: 1 h 40 min
Bit rate: 4 974 kb/s
Width: 1 920 pixels
Height: 1 080 pixels
Display aspect ratio: 16:9
Frame rate mode: Constant
Frame rate: 24.000 FPS
Color space: YUV
Chroma subsampling: 4:2:0
Bit depth: 8 bits
Scan type: Progressive
Bits/(Pixel*Frame): 0.100
Stream size: 3.48 GiB (93%)
Title: T_LAST_FICTION_2018_WEB-DL_1080p-BLUEBIRD
Language: English
Default: Yes
Forced: No
Color range: Limited
Color primaries: BT.709
Transfer characteristics: BT.709
Matrix coefficients: BT.709
Audio
ID: 2
Format: AC-3
Format/Info: Audio Coding 3
Commercial name: Dolby Digital
Codec ID: A_AC3
Duration: 1 h 40 min
Bit rate mode: Constant
Bit rate: 384 kb/s
Channel(s): 6 channels
Channel layout: L R C LFE Ls Rs
Sampling rate: 48.0 kHz
Frame rate: 31.250 FPS (1536 SPF)
Compression mode: Lossy
Delay relative to video: -42 ms
Stream size: 275 MiB (7%)
Title: [DUB] DD 5.1 @ 384 kbps (iTunes)
Language: Russian
Service kind: Complete Main
Default: Yes
Forced: No
Menu
00:00:00.000: en:Глава 1
00:07:25.083: en:Глава 2
00:14:21.874: en:Глава 3
00:21:05.999: en:Глава 4
00:28:11.790: en:Глава 5
00:35:05.165: en:Глава 6
00:43:14.206: en:Глава 7
00:50:52.122: en:Глава 8
00:56:44.413: en:Глава 9
01:04:14.246: en:Глава 10
01:12:14.579: en:Глава 11
01:19:12.079: en:Глава 12
01:27:14.287: en:Глава 13
01:33:36.828: en:Глава 14
Источник http://listRutor.org

Трекер:  [ 01-Май-2020 16:50 ]

  

Скачать .torrent

Размер .torrent файла 75 KB


Размер: 3.75 GB
Хэш (hash) релиза: 99f14fc63d843973dfa0d704a27366bddda48a69
Подписка на обновления:

Торренты, похожие на Последняя фантазия Akharin Dastan скачать торрент

Форум Название Автор Размер S L Добавлен
Мультфильмы 2016-2020 (Новинки мультфильмов) ·%· Последняя фантазия / Akharin Dastan / The Last Fiction (2018) WEB-DLRip-AVC | iTunes Galfimbul ghost 15696539021.46 GB 1 0 1588054877

09:21

28-Апр-20

Еще никто не оставлял запись к записи скачать торрент Последняя фантазия Akharin Dastan . Будь первым!

!Обратная связь