Скачать через торрент Фея Фильм бесплатно в хорошем качестве torrent

Скачивайте на UnionPeer.org фильмы через торрент без регистрации. Новинки кино в хорошем качестве через торрент. На UnionPeer.org можно скачать через торрент фильмы 2014 и 2015 годов. Самые новые фильмы.

Скачать торрент Фея бесплатно через .torrent фильм мультфильм сериал

Статистика раздачи
Размер:  5.5 GB   |    Зарегистрирован:  28 дней   |    .torrent скачан:  181 раз   |   

Пиры будут получены при скачивании

Качают:  2  
 

Скачать Фея (2020) WEBRip 1080p через torrent

 
загрузка...
 
Автор Сообщение

Galfimbul ghost

avatar Galfimbul ghost


Фея

Год выхода: 2020
Жанр: Драма, фантастика, триллер
Страна: Россия
Перевод: Не требуется (есть 2 нецензурных слова)
Продолжительность: 02:31:25
Режиссер: Анна Меликян
В ролях: Константин Хабенский, Ингеборга Дапкунайте, Никита Еленев, Екатерина Агеева, Александра Дишдишян, Тинатин Далакишвили, Мария Шалаева, Владимир Мишуков, Павел Ворожцов, Юрий Борисов и др.

О фильме: Создатель лучших игр в виртуальной реальности уверен, что контролирует всё в своей жизни. Но случайная встреча с молодой активисткой открывает ему глаза на то, что мир намного шире и сложнее его представлений. Фильм расскажет о разработчике игры «Коловрат», который посещает храм, где видит своё лицо, изображённое на фреске Андрея Рублёва, в результате чего отправляется в прошлое и изменяет настоящее.


Файл
Качество: WEBRip 1080p
Видео: MPEG-4 AVC, 1920x806, 5006 kbps, 24,000 fps
Звук: русский, AC3, 2.0 ch, 48 kHz, 192 kbps
Субтитры: нет
Общее
Уникальный идентификатор : 223388250578135731450901777530417875904 (0xA80F031911A38D8F8955995FFEA48BC0)
Полное имя : G:Torrent2FeyaWEBRip1080p.mkv
Формат : Matroska
Версия формата : Version 4 / Version 2
Размер файла : 5,50 Гбайт
Продолжительность : 2 ч. 31 м.
Общий поток : 5199 Кбит/сек
Дата кодирования : UTC 2020-05-01 21:27:46
Программа кодирования : mkvmerge v9.5.0 ('Quiet Fire') 64bit
Библиотека кодирования : libebml v1.3.4 + libmatroska v1.4.5

Видео
Идентификатор : 1
Формат : AVC
Формат/Информация : Advanced Video Codec
Профиль формата : High@L4.1
Настройки формата : CABAC / 5 Ref Frames
Параметр CABAC формата : Да
Параметр RefFrames формата : 5 кадров
Идентификатор кодека : V_MPEG4/ISO/AVC
Продолжительность : 2 ч. 31 м.
Битрейт : 5006 Кбит/сек
Ширина : 1920 пикселей
Высота : 806 пикселей
Соотношение сторон : 2,40:1
Режим частоты кадров : Постоянный
Частота кадров : 24,000 кадра/сек
Цветовое пространство : YUV
Субдискретизация насыщенности : 4:2:0
Битовая глубина : 8 бит
Тип развёртки : Прогрессивная
Бит/(Пиксели*Кадры) : 0.135
Размер потока : 5,29 Гбайт (96%)
Язык : Russian
Default : Да
Forced : Нет

Аудио
Идентификатор : 2
Формат : AC-3
Формат/Информация : Audio Coding 3
Параметр Endianness формата : Big
Идентификатор кодека : A_AC3
Продолжительность : 2 ч. 31 м.
Вид битрейта : Постоянный
Битрейт : 192 Кбит/сек
Каналы : 2 канала
Расположение каналов : Front: L R
Частота : 48,0 КГц
Частота кадров : 31,250 кадров/сек (1536 SPF)
Битовая глубина : 16 бит
Метод сжатия : С потерями
Размер потока : 208 Мбайт (4%)
Заголовок : rus
Язык : Russian
Default : Да
Forced : Нет
Источник http://listRutor.org

Трекер:  [ 02-Май-2020 18:10 ]

  

Скачать .torrent

Размер .torrent файла 14 KB


Размер: 5.5 GB
Хэш (hash) релиза: 13006cb9fb5e239f32b71b14136769f4f3b09a08
Подписка на обновления:

Торренты, похожие на Фея скачать торрент

Форум Название Автор Размер S L Добавлен
Спорт ·· Чемпионат Аргентины 2016 / 7-й тур / Бока Хуниорс (Буэнос-Айрес) - Унион Санта-Фе (Санта-Фе) / Canal+ HD [15.03.2016, Футбол, H.264, HDTVRip/720p, 30fps, ES] Galfimbul ghost 23802314822.22 GB 0 0 1458164307

00:38

17-Мар-16

PSP | Аниме ·· Фейри тэйл /Хвост Феи (Фильм): Жрица Феникса /Сказка о Хвосте Фей: Жрица Жар-Птицы /Gekijouban Fairy Tail: Houou no Miko/Priestess of the Phoenix(Фудзимори Масая)[Movie + Special][1 из 1 / 1 из 1][2012 г., приключения, HDRip][Субтитры] Galfimbul ghost 392070293374 MB 0 0 1372712255

23:57

1-Июл-13

Зарубежные фильмы до 2016 ·· Фотофеи / Фотографируя фей / С феями - шутки плохи / Photographing Fairies (Ник Уиллинг) [1997 г., мистика, фэнтези, SATRip] Galfimbul ghost 16360611841.52 GB 0 0 1365331713

13:48

7-Апр-13

Зарубежные фильмы до 2016 ·· Фотофеи / Фотографируя фей / С Феями - Шутки Плохи / Photographing Fairies (Ник У иллинг) [1997 г., мистика, триллер, фэнтези, DVDRip] Aiser 731965440698 MB 0 0 1364014010

07:46

23-Мар-13

Зарубежные фильмы до 2016 ·· С феями - шутки плохи / Фотографируя фей / Photographing Fairies (Ник Уиллинг / Nick Willing) [1997 г., Фэнтези, драма, детектив, DVDRip] Aiser 14684938241.37 GB 0 0 1364013978

07:46

23-Мар-13

Российские фильмы 2016-2020 (Новинки русского кино) ·%· Фея (2020) WEBRip Galfimbul ghost 15525437441.45 GB 2 0 1588587721

13:22

4-Май-20

Зарубежные фильмы 2016-2019 (Новинки зарубежного кино) ·· Зубная фея / Tooth Fairy / Toof (2019) HDRip-AVC от ExKinoRay | iTunes Galfimbul ghost 15522921591.45 GB 0 0 1580874612

06:50

5-Фев-20

Зарубежные фильмы 2016-2019 (Новинки зарубежного кино) ·%· Фея / Pari (2018) WEBRip 1080p | GreenРай Studio Galfimbul ghost 47521453814.43 GB 0 0 1535357476

11:11

27-Авг-18

Зарубежные фильмы 2016-2019 (Новинки зарубежного кино) ·%· Фея / Pari (2018) WEBRip 720p | GreenРай Studio Galfimbul ghost 30564158732.85 GB 0 0 1535357466

11:11

27-Авг-18

Зарубежные фильмы 2016-2019 (Новинки зарубежного кино) ·%· Фея / Pari (2018) WEBRip | GreenРай Studio Galfimbul ghost 14747548741.37 GB 0 0 1535357455

11:10

27-Авг-18

Спорт ·· Волейбол / Лига наций - 2018, Санта-Фе, Аргентина / Женщины / Группа 1 / 13-й тур / Сербия — США / Матч Игра HD [12.06.2018, Волейбол, HDTVRip/AVI/XviD, RU] Galfimbul ghost 16699269121.56 GB 0 0 1528879331

11:42

13-Июн-18

Спорт ·· Волейбол / Лига наций - 2018, Санта-Фе, Аргентина / Женщины / Группа 1 / 13-й тур / Сербия — США / Матч Игра HD [12.06.2018, Волейбол, HDTVRip/720p/50fps, MKV/H.264, RU] Galfimbul ghost 47508235764.42 GB 0 0 1528870335

09:12

13-Июн-18

Мультфильмы до 2016 ·· Маминти - маленькая зелёная фея / Maminti - a kicsi zöld tündér (Мария Хорват / Mária Horváth) [2013, Венгрия, мультфильм, экранизация, WEBRip-AVC] original magyar + rus sub Galfimbul ghost 7651557873 MB 0 0 1518858407

12:06

17-Фев-18

Зарубежные фильмы до 2016 ·· Домашние феи / Les fees du logis (Паскаль Форнери / Pascal Forneri) [2014, Франция, романтическая комедия, DVB] Original (Fre) + Sub (Rus, Eng, Fre, Deu) Galfimbul ghost 19945520351.86 GB 0 0 1503750609

15:30

26-Авг-17

Зарубежные фильмы до 2016 ·· Страна Фей / The Magical Legend of the Leprechauns (Джон Хендерсон / John Henderson) [1999, Великобритания, Германия, США, Приключения, фэнтази, 2xDVD5] Galfimbul ghost 86904818978.09 GB 0 0 1500797168

11:06

23-Июл-17

Мультфильмы до 2016 ·· Феи / Tinker Bell (Брэдли Рэймонд / Bradley Raymond) [2008, Мультфильм, фэнтези, BDRip 1080p] Galfimbul ghost 67008038986.24 GB 0 0 1498226776

17:06

23-Июн-17

Зарубежные сериалы ·· Фея из Страны Чудес / Седьмая с Небес / Tian Wai Fei Xian / Fairy from Wonderland / The Little Fairy / Seven of the Sky [6 из 39] [Тайвань, 2006, Романтика, комедия, фэнтези, DVDRip] [576p] Galfimbul ghost 43962859814.09 GB 0 0 1497050779

02:26

10-Июн-17

Спорт ·· Чемпионат Аргентины 2016-2017 | 15-й тур | Ривер Плейт [Буэнос-Айрес] - Унион [Санта-Фе] | ТК Футбол [13.03.2017|Футбол|IPTV, TS|AVC] Galfimbul ghost 28196198642.63 GB 0 0 1489377198

06:53

13-Мар-17

Зарубежные сериалы ·· Фея тяжёлой атлетики Ким Бок Чжу / Yeokdo-yojeong Gim Bok-ju / Weightlifting Fairy Kim Bok Joo [16 серий] [2016, Романтика, комедия, спорт, HDTVRip] [RAW] [720p](Original + Sub) (FSG Cardinals) Galfimbul ghost 2204285382520.53 GB 0 0 1487094403

20:46

14-Фев-17

Еще никто не оставлял запись к записи скачать торрент Фея . Будь первым!

!Обратная связь