Yu Shinoda - While The Entire Office Was Out On A Company Trip, We Were The Only 2 In The Office. I Was Left At The Office With My Co-Worker, And From 9 A.M. Until 5 P.M., Every Day, We Continued To Have Creampie Sex UnionPeer.org HD

2015, 2014 UnionPeer.org

.

5.13 GB   |    :  3 1    |    .torrent :  62    |   

1  
   
 

Galfimbul

avatar Galfimbul



While The Entire Office Was Out On A Company Trip, We Were The Only 2 In The Office. I Was Left At The Office With My Co-Worker, And From 9 A.M. Until 5 P.M., Every Day, We Continued To Have Creampie Sex
社員旅行中 2人だけのオフィス。会社に取り残されたボクと先輩は9時から5時まで連日中出しセックスしまくった


:2020 .
C:
: Creampie, Big Tits, Anal
: 01:58:37
:
:
: PRED-237
: PREMIUM
:
: Yu Shinoda
HD : 1080p
: HDRip
: MP4
: AVC, 1920 pixelsx1080 pixels, 29.960 FPS, 6000kb/s
: AAC, 48.0 kHz, 48.0 kHz, 192 kb/s

General
Complete name : E:\po\PRED-237.mp4
Format : MPEG-4
Format profile : Base Media
Codec ID : isom (isom/iso2/avc1/mp41)
File size : 5.13 GiB
Duration : 1 h 58 min
Overall bit rate : 6 186 kb/s
Writing application : Lavf58.10.100

Video
ID : 1
Format : AVC
Format/Info : Advanced Video Codec
Format profile : [email protected]
Format settings : 1 Ref Frames
Format settings, CABAC : No
Format settings, Reference : 1 frame
Codec ID : avc1
Codec ID/Info : Advanced Video Coding
Duration : 1 h 58 min
Duration_LastFrame : 1 ms
Bit rate : 6 000 kb/s
Width : 1 920 pixels
Height : 1 080 pixels
Display aspect ratio : 16:9
Frame rate mode : Constant
Frame rate : 29.970 (30000/1001) FPS
Color space : YUV
Chroma subsampling : 4:2:0
Bit depth : 8 bits
Scan type : Progressive
Bits/(Pixel*Frame) : 0.097
Stream size : 4.96 GiB (97%)
Writing library : x264 core 155 r2901 7d0ff22
Encoding settings : cabac=0 / ref=1 / deblock=1:0:0 / analyse=0x1:0x111 / me=hex / subme=2 / psy=1 / psy_rd=1.00:0.00 / mixed_ref=0 / me_range=16 / chroma_me=1 / trellis=0 / 8x8dct=0 / cqm=0 / deadzone=21,11 / fast_pskip=1 / chroma_qp_offset=0 / threads=18 / lookahead_threads=6 / sliced_threads=0 / nr=0 / decimate=1 / interlaced=0 / bluray_compat=0 / constrained_intra=0 / bframes=0 / weightp=0 / keyint=250 / keyint_min=25 / scenecut=40 / intra_refresh=0 / rc_lookahead=10 / rc=abr / mbtree=1 / bitrate=6000 / ratetol=1.0 / qcomp=0.60 / qpmin=0 / qpmax=69 / qpstep=4 / ip_ratio=1.40 / aq=1:1.00
Codec configuration box : avcC

Audio
ID : 2
Format : AAC LC
Format/Info : Advanced Audio Codec Low Complexity
Codec ID : mp4a-40-2
Duration : 1 h 58 min
Bit rate mode : Constant
Bit rate : 192 kb/s
Channel(s) : 2 channels
Channel layout : L R
Sampling rate : 48.0 kHz
Frame rate : 46.875 FPS (1024 SPF)
Compression mode : Lossy
Stream size : 163 MiB (3%)
Default : Yes
Alternate group : 1


! AdBlock , )))
 ·  , , FAQ-
:  [ 05--2020 00:40 ]

  

.torrent

.torrent 26 KB


: 5.13 GB
(hash) : 08ee45af520ebf63d0b08e667c6115b1f5bf0173
··
...

, Yu Shinoda - While The Entire Office Was Out On A Company Trip, We Were The Only 2 In The Office. I Was Left At The Office With My Co-Worker, And From 9 A.M. Until 5 P.M., Every Day, We Continued To Have Creampie Sex

S L
(DVD HD Video) / Japanese Movies & SiteRip's (DVD & HD Video) ·· Shinoda Yu - While The Entire Office Was Out On A Company Trip, We Were The Only 2 In The Office. I Was Left At The Office With My Co-Worker, And From 9 A.M. Until 5 P.M., Every Day, We Continued To Have Creampie Sex [PRED-237] (Shouten Shirou, Premi Galfimbul 12240728301.14 GB 0 0 1588454349

00:19

3--20

Yu Shinoda - While The Entire Office Was Out On A Company Trip, We Were The Only 2 In The Office. I Was Left At The Office With My Co-Worker, And From 9 A.M. Until 5 P.M., Every Day, We Continued To Have Creampie Sex . !

!