Скачать через торрент Абсолютная власть Imperium Фильм бесплатно в хорошем качестве torrent

Скачивайте на UnionPeer.org фильмы через торрент без регистрации. Новинки кино в хорошем качестве через торрент. На UnionPeer.org можно скачать через торрент фильмы 2014 и 2015 годов. Самые новые фильмы.

Скачать торрент Абсолютная власть Imperium бесплатно через .torrent фильм мультфильм сериал

Статистика раздачи
Размер:  4.58 GB   |    Зарегистрирован:  3 года 9 месяцев   |    .torrent скачан:  32 раза   |   

Пиры будут получены при скачивании

 

Скачать Абсолютная власть / Imperium (2016) BDRip 720p от k.e.n | D, P, A через torrent

 
 
Автор Сообщение

Galfimbul

avatar Galfimbul


Информация о фильме
Абсолютная власть /Imperium

Год выпуска: 2016
Жанр: Триллер, драма, криминал
Режиссер: Даниэль Рагуссис
В ролях: Дэниэл Рэдклифф, Тони Коллетт, Трэйси Леттс, Сэм Трэммелл, Нестор Карбонелл, Крис Салливан, Сет Нумрик, Павел Жайда, Девин Друид, Берн Горман

О фильме:
Агент ФБР под прикрытием внедряется в банду нео-нацистов для предотвращения теракта. Каково это — жить каждый день в потоке насилия и жестокости, отстаивать свое право кулаками, выбрить череп и закрыть душу? Что такое нео-нацизм -это не только хулиганы и скинхеды, но и благополучные господа в дорогих костюмах, готовые уничтожить город ради идеи.



Страна: США
Студия: Atomic Features
Продолжительность: 01:48:36
Перевод: Дублированный, профессиональный многоголосый закадровый, авторский

Файл
Формат: MKV
Качество: BDRip 720p
Видео: AVC, 1280x536 (2.40:1), 23.976 fps, 4 007 kbps
Аудио #1: AC3, 48 kHz, 2 ch, 192 kbps - Русский, Dub | SDI-Media
Аудио #2: AC3, 48 kHz, 6 ch, 384 kbps - Русский, MVO | iTunes
Аудио #3: AC3, 48 kHz, 6 ch, 448 kbps - Русский, MVO | Paradox & Omskbird records
Аудио #4: AC3, 48 kHz, 6 ch, 448 kbps - Русский, AVO | Д.Есарев
Аудио #5: AC3, 48 kHz, 6 ch, 448 kbps - Английский, Original
Субтитры: английские
General
Unique ID : 234104850984712120199559638410641007348 (0xB01EF44AA1816F868A7CEA0EDEA7E2F4)
Complete name : D:Абсолютная власть.2016 (Д.Ридклифф).mkv
Format : Matroska
Format version : Version 2
File size : 4.58 GiB
Duration : 1 h 48 min
Overall bit rate : 6 038 kb/s
Encoded date : UTC 2020-05-07 05:52:34
Writing application : mkvmerge v5.3.0 ('I could have danced') built on Feb 9 2012 10:38:07
Writing library : libebml v1.2.3 + libmatroska v1.3.0
Attachments : poster (2).jpg

Video
ID : 1
Format : AVC
Format/Info : Advanced Video Codec
Format profile : [email protected]
Format settings : CABAC / 12 Ref Frames
Format settings, CABAC : Yes
Format settings, ReFrames : 12 frames
Codec ID : V_MPEG4/ISO/AVC
Duration : 1 h 48 min
Bit rate : 3 998 kb/s
Width : 1 280 pixels
Height : 536 pixels
Display aspect ratio : 2.40:1
Frame rate mode : Constant
Frame rate : 23.976 (24000/1001) FPS
Color space : YUV
Chroma subsampling : 4:2:0
Bit depth : 8 bits
Scan type : Progressive
Bits/(Pixel*Frame) : 0.243
Stream size : 3.03 GiB (66%)
Writing library : x264 core 148 r2721kMod 72d53ab
Encoding settings : cabac=1 / ref=12 / deblock=1:-3:-3 / analyse=0x3:0x133 / me=umh / subme=10 / psy=1 / fade_compensate=0.00 / psy_rd=1.00:0.00 / mixed_ref=1 / me_range=24 / chroma_me=1 / trellis=2 / 8x8dct=1 / cqm=0 / deadzone=21,11 / fast_pskip=0 / chroma_qp_offset=-2 / threads=56 / lookahead_threads=4 / sliced_threads=0 / nr=0 / decimate=0 / interlaced=0 / bluray_compat=0 / constrained_intra=0 / fgo=0 / bframes=9 / b_pyramid=2 / b_adapt=2 / b_bias=0 / direct=3 / weightb=1 / open_gop=0 / weightp=2 / keyint=250 / keyint_min=23 / scenecut=40 / intra_refresh=0 / rc_lookahead=60 / rc=crf / mbtree=0 / crf=15.0000 / qcomp=0.60 / qpmin=0 / qpmax=69 / qpstep=4 / vbv_maxrate=62500 / vbv_bufsize=78125 / crf_max=0.0 / nal_hrd=none / filler=0 / ip_ratio=1.30 / pb_ratio=1.20 / aq=3:0.70
Language : English
Default : Yes
Forced : No
Color range : Limited
Matrix coefficients : BT.709

Audio #1
ID : 2
Format : AC-3
Format/Info : Audio Coding 3
Commercial name : Dolby Digital
Codec ID : A_AC3
Duration : 1 h 48 min
Bit rate mode : Constant
Bit rate : 192 kb/s
Channel(s) : 2 channels
Channel layout : L R
Sampling rate : 48.0 kHz
Frame rate : 31.250 FPS (1536 SPF)
Bit depth : 16 bits
Compression mode : Lossy
Stream size : 149 MiB (3%)
Title : Dub | SDI-Media
Language : Russian
Service kind : Complete Main
Default : Yes
Forced : No

Audio #2
ID : 3
Format : AC-3
Format/Info : Audio Coding 3
Commercial name : Dolby Digital
Codec ID : A_AC3
Duration : 1 h 48 min
Bit rate mode : Constant
Bit rate : 384 kb/s
Channel(s) : 6 channels
Channel layout : L R C LFE Ls Rs
Sampling rate : 48.0 kHz
Frame rate : 31.250 FPS (1536 SPF)
Bit depth : 16 bits
Compression mode : Lossy
Stream size : 298 MiB (6%)
Title : MVO | iTunes
Language : Russian
Service kind : Complete Main
Default : No
Forced : No

Audio #3
ID : 4
Format : AC-3
Format/Info : Audio Coding 3
Commercial name : Dolby Digital
Codec ID : A_AC3
Duration : 1 h 48 min
Bit rate mode : Constant
Bit rate : 448 kb/s
Channel(s) : 6 channels
Channel layout : L R C LFE Ls Rs
Sampling rate : 48.0 kHz
Frame rate : 31.250 FPS (1536 SPF)
Bit depth : 16 bits
Compression mode : Lossy
Stream size : 348 MiB (7%)
Title : MVO | Paradox & Omskbird records
Language : Russian
Service kind : Complete Main
Default : No
Forced : No

Audio #4
ID : 5
Format : AC-3
Format/Info : Audio Coding 3
Commercial name : Dolby Digital
Codec ID : A_AC3
Duration : 1 h 48 min
Bit rate mode : Constant
Bit rate : 448 kb/s
Channel(s) : 6 channels
Channel layout : L R C LFE Ls Rs
Sampling rate : 48.0 kHz
Frame rate : 31.250 FPS (1536 SPF)
Bit depth : 16 bits
Compression mode : Lossy
Stream size : 348 MiB (7%)
Title : AVO | Д.Есарев
Language : Russian
Service kind : Complete Main
Default : No
Forced : No

Audio #5
ID : 6
Format : AC-3
Format/Info : Audio Coding 3
Commercial name : Dolby Digital
Codec ID : A_AC3
Duration : 1 h 48 min
Bit rate mode : Constant
Bit rate : 448 kb/s
Channel(s) : 6 channels
Channel layout : L R C LFE Ls Rs
Sampling rate : 48.0 kHz
Frame rate : 31.250 FPS (1536 SPF)
Bit depth : 16 bits
Compression mode : Lossy
Stream size : 348 MiB (7%)
Title : Original
Language : English
Service kind : Complete Main
Default : No
Forced : No

Text #1
ID : 7
Format : UTF-8
Codec ID : S_TEXT/UTF8
Codec ID/Info : UTF-8 Plain Text
Title : Full
Language : English
Default : No
Forced : No

Text #2
ID : 8
Format : UTF-8
Codec ID : S_TEXT/UTF8
Codec ID/Info : UTF-8 Plain Text
Title : SDH
Language : English
Default : No
Forced : No

Menu
00:00:00.000 : en:00:00:00.000
00:07:07.260 : en:00:07:07.260
00:14:49.680 : en:00:14:49.680
00:21:11.645 : en:00:21:11.645
00:27:08.836 : en:00:27:08.836
00:33:24.002 : en:00:33:24.002
00:39:43.256 : en:00:39:43.256
00:46:01.008 : en:00:46:01.008
00:51:49.565 : en:00:51:49.565
00:57:56.640 : en:00:57:56.640
01:05:00.271 : en:01:05:00.271
01:11:59.899 : en:01:11:59.899
01:19:28.222 : en:01:19:28.222
01:26:43.573 : en:01:26:43.573
01:30:29.799 : en:01:30:29.799
01:38:49.590 : en:01:38:49.590
Источник http://listRutor.org

Внимание! AdBlock блокирует показ скриншотов, все вопросы к разработчикам )))
Трекер:  [ 07-Май-2020 09:10 ]

  

Скачать .torrent

Размер .torrent файла 12 KB


Размер: 4.58 GB
Хэш (hash) релиза: ce38c89b9b82c932aaee118f8600a0398ad484e5
Подписка на обновления:

Торренты, похожие на Абсолютная власть Imperium скачать торрент

Форум Название Автор Размер S L Добавлен
Зарубежные фильмы 2016-2019 (Новинки зарубежного кино) ·%· Абсолютная власть / Imperium (2016) HDRip | D Galfimbul 15639654401.46 GB 0 0 1537167043

09:50

17-Сен-18

Зарубежные фильмы до 2016 ·· Абсолютная власть / Imperium (Даниэль Рагуссис / Daniel Ragussis) [2016, США, триллер, драма, криминал, BDRip 720p] MVO (iTunes) + Original (Eng) + Sub (Eng) Galfimbul 52613718954.9 GB 0 0 1482858037

20:00

27-Дек-16

Зарубежные фильмы 2016-2019 (Новинки зарубежного кино) ·· Абсолютная власть / Imperium (Дэниэл Рагуссис / Daniel Ragussis) [2016, США, криминальная драма, триллер, HDRip] DVO Galfimbul 784517120748 MB 0 0 1482071905

17:38

18-Дек-16

Зарубежные фильмы 2016-2019 (Новинки зарубежного кино) ·· Абсолютная власть / Imperium (Дэниэл Рагуссис / Daniel Ragussis) [2016, США, криминальная драма, триллер, HDRip] MVO (Omsbird records & Paradox) Galfimbul 784517120748 MB 0 0 1478455260

21:01

6-Ноя-16

Зарубежные фильмы 2016-2019 (Новинки зарубежного кино) ·· Абсолютная власть / Imperium (Дэниэл Рагуссис / Daniel Ragussis) [2016, США, криминальная драма, триллер, HDRip] MVO (Omsbird records & Paradox) Galfimbul 15515156481.44 GB 0 0 1478379646

00:00

6-Ноя-16

Зарубежные фильмы до 2016 ·· Абсолютная власть / Imperium (Даниэль Рагуссис / Daniel Ragussis) [2016, США, триллер, драма, криминал, BDRip 720p] MVO + Original (Eng) + Sub (Eng) Galfimbul 53134994894.95 GB 0 0 1477512438

23:07

26-Окт-16

Зарубежные фильмы 2016-2019 (Новинки зарубежного кино) ·· Абсолютная власть / Imperium (Даниэль Рагуссис) [2016, триллер, драма, криминал, НDRip] Galfimbul 21946566342.04 GB 0 0 1477405928

17:32

25-Окт-16

Зарубежные фильмы 2016-2019 (Новинки зарубежного кино) ·· Абсолютная власть / Imperium (Даниэль Рагуссис) [2016, триллер, драма, криминал, BDRip 720p] Galfimbul 88865149008.28 GB 0 0 1477053573

15:39

21-Окт-16

Зарубежные фильмы 2016-2019 (Новинки зарубежного кино) ·· Абсолютная власть / Imperium (Даниэль Рагуссис / Daniel Ragussis) [2016, США, триллер, драма, криминал, HDRip] MVO Galfimbul 15658885121.46 GB 0 0 1477053259

15:34

21-Окт-16

Зарубежные фильмы 2016-2019 (Новинки зарубежного кино) ·· Абсолютная власть / Imperium (Даниэль Рагуссис) [2016, триллер, драма, криминал, WEB-DLRip] Galfimbul 15644282881.46 GB 0 0 1471759825

09:10

21-Авг-16

Зарубежные фильмы 2016-2019 (Новинки зарубежного кино) ·· Абсолютная власть / Imperium (Даниэль Рагуссис) [2016, триллер, драма, криминал, WEB-DLRip 1080p] Galfimbul 38936998103.63 GB 0 0 1471759820

09:10

21-Авг-16

Еще никто не оставлял запись к записи скачать торрент Абсолютная власть Imperium . Будь первым!

!Обратная связь