Скачать через торрент Плохая ночь La mala noche Фильм бесплатно в хорошем качестве torrent

Скачивайте на UnionPeer.org фильмы через торрент без регистрации. Новинки кино в хорошем качестве через торрент. На UnionPeer.org можно скачать через торрент фильмы 2014 и 2015 годов. Самые новые фильмы.

Скачать торрент Плохая ночь La mala noche бесплатно через .torrent фильм мультфильм сериал

Статистика раздачи
Размер:  1.44 GB   |    Зарегистрирован:  23 дня   |    .torrent скачан:  148 раз   |   
Раздают:  1   Качают:  1  
 

Скачать Плохая ночь / La mala noche / The Longest Night (2019) WEBRip 720p | L1 через torrent

 
загрузка...
 
Автор Сообщение

Galfimbul ghost

avatar Galfimbul ghost


Плохая ночь /La mala noche / The Longest Night

Год выхода: 2019
Жанр: триллер, драма
Режиссер: Габриела Кальваш / Gabriela Calvache
В ролях: Ноэлль Шонволд, Кристиан Меркадо, Хайме Тамариз, Ариана Фрейре, Надин Муньос Сервантес, Кристина Маршан, Наоми Руф Кальвач, Хоакин Гонсалес, Хуан Хосе Франко, Доменика Элизабет Галлардо

О фильме:
Красавица Пилар вынуждена заниматся проституцией, чтобы платить за дорогостоящее лечение своей дочери. Но неожиданные события в её жизни заставляют её изменится и взять правосудие в свои руки.

Фильм выдвинут Эквадором на премию «Оскар» за лучший фильм на иностранном языке в 2020г.
Язык: Испанский.



Страна: Эквадор, Мексика
Студия: Студия-изготовитель, если известна
Продолжительность: 01:34:34
Перевод: Любительский одноголосый закадровый (visanti-vasaer)

Файл
Кодек: h264
Качество: WEBRip 720p
Видео: 1280x538, 23,810 fps, 2000 kbps
Звук: AC3 Dolby Digital 48000 Гц, 2ch, 192 Кбит/сек, русский
Субтитры: нет
Формат : Matroska
Версия формата : Version 2
Размер файла : 1,44 Гбайт
Продолжительность : 1 ч. 34 м.
Общий поток : 2181 Кбит/сек
Дата кодирования : UTC 2020-05-07 03:40:53
Программа кодирования : mkvmerge v6.9.1 ('Blue Panther') 32bit built on Apr 18 2014 18:15:44
Библиотека кодирования : libebml v1.3.0 + libmatroska v1.4.1

Видео
Идентификатор : 1
Формат : AVC
Формат/Информация : Advanced Video Codec
Профиль формата : High@L4.1
Настройки формата : CABAC / 4 Ref Frames
Параметр CABAC формата : Да
Параметр RefFrames формата : 4 кадра
Идентификатор кодека : V_MPEG4/ISO/AVC
Продолжительность : 1 ч. 34 м.
Битрейт : 2000 Кбит/сек
Ширина : 1280 пикселей
Высота : 538 пикселей
Соотношение сторон : 2,40:1
Режим частоты кадров : Постоянный
Частота кадров : 23,810 кадра/сек
Цветовое пространство : YUV
Субдискретизация насыщенности : 4:2:0
Битовая глубина : 8 бит
Тип развёртки : Прогрессивная
Бит/(Пиксели*Кадры) : 0.122
Размер потока : 1,29 Гбайт (89%)
Библиотека кодирования : x264 core 142 r2479 dd79a61
Настройки программы : cabac=1 / ref=2 / deblock=1:0:0 / analyse=0x3:0x113 / me=hex / subme=4 / psy=1 / psy_rd=1.00:0.00 / mixed_ref=0 / me_range=16 / chroma_me=1 / trellis=1 / 8x8dct=1 / cqm=0 / deadzone=21,11 / fast_pskip=1 / chroma_qp_offset=0 / threads=48 / lookahead_threads=4 / sliced_threads=0 / nr=0 / decimate=1 / interlaced=0 / bluray_compat=0 / constrained_intra=0 / bframes=3 / b_pyramid=2 / b_adapt=1 / b_bias=0 / direct=1 / weightb=1 / open_gop=0 / weightp=1 / keyint=240 / keyint_min=24 / scenecut=40 / intra_refresh=0 / rc_lookahead=20 / rc=abr / mbtree=1 / bitrate=2000 / ratetol=1.0 / qcomp=0.60 / qpmin=0 / qpmax=69 / qpstep=4 / vbv_maxrate=62500 / vbv_bufsize=78125 / nal_hrd=none / filler=0 / ip_ratio=1.40 / aq=1:1.00
Default : Да
Forced : Нет
Цветовой диапазон : Limited
Основные цвета : BT.709
Характеристики трансфера : BT.709
Коэффициенты матрицы : BT.709

Аудио
Идентификатор : 2
Формат : AC-3
Формат/Информация : Audio Coding 3
Идентификатор кодека : A_AC3
Продолжительность : 1 ч. 34 м.
Вид битрейта : Постоянный
Битрейт : 192 Кбит/сек
Каналы : 2 канала
Расположение каналов : Front: L R
Частота : 48,0 КГц
Частота кадров : 31,250 кадров/сек (1536 SPF)
Битовая глубина : 16 бит
Метод сжатия : С потерями
Размер потока : 130 Мбайт (9%)
Язык : Russian
ServiceKind/Strin : Complete Main
Default : Да
Forced : Нет
Источник http://listRutor.org

Трекер:  [ 07-Май-2020 10:00 ]

  

Скачать .torrent

Размер .torrent файла 15 KB


Размер: 1.44 GB
Хэш (hash) релиза: 2b203f73d7a2c3700f64e5a450e252c8e761f0b5
Подписка на обновления:

Еще никто не оставлял запись к записи скачать торрент Плохая ночь La mala noche . Будь первым!

!Обратная связь