Скачать через торрент Небо измеряется милями Фильм бесплатно в хорошем качестве torrent

Скачивайте на UnionPeer.org фильмы через торрент без регистрации. Новинки кино в хорошем качестве через торрент. На UnionPeer.org можно скачать через торрент фильмы 2014 и 2015 годов. Самые новые фильмы.

Скачать торрент Небо измеряется милями бесплатно через .torrent фильм мультфильм сериал

Статистика раздачи
Размер:  3.48 GB   |    Зарегистрирован:  22 дня   |    .torrent скачан:  101 раз   |   
Раздают:  1  
 

Скачать Небо измеряется милями (2019) WEB-DL 1080p через torrent

 
загрузка...
 
Автор Сообщение

Galfimbul ghost

avatar Galfimbul ghost


Название: Небо измеряется милями
Год выхода: 2019
Жанр: Военный, история, биография, драма
Режиссер: Константин Буслов
В ролях: Евгений Стычкин, Марьяна Спивак, Андрей Мерзликин, Максим Битюков, Евгений Пеккер, Сергей Походаев, Алексей Розин, Пётр Кислов, Петар Зекавица, Мария Шумакова, Александр Рапопорт, Сергей Лосев, Александр Хошабаев, Дмитрий Богдан, Евгений Вальц, Игорь Поселенов, Николай Козак, Ася Домская, Адам Булгучев, Тимофей Каратаев, Алексей Овсянников, Сергей Цепов, Сергей Шанин, Максим Иванов (II), Степан Середа, Елизавета Агрова, Леонид Ворон, Кирилл Одоевский

О фильме: О жизни и судьбе легендарного советского конструктора вертолетов Михаила Леонтьевича Миля. Он создал самый массовый в мире вертолет Ми-8. Он создал самый мощный транспортный вертолет в мире – Ми-12. Трудный путь гениального авиаконструктора, десятилетиями преодолевавшего недоверие людей к его идеям, тесно переплетен с драматической историей его жизни. Миль с детства любил небо и на протяжении всей своей непростой жизни шел за мечтой.
Страна: Россия
Студия: RB Production
Продолжительность: 01:30:30
Перевод: Не требуется

Файл
Качество: WEB-DL 1080p
Контейнер: MKV
Видео: MPEG4 AVC Video, 1920x1036, 25.000 fps, 5115 kbps
Аудио: Russian: AC3, 6 ch, 384 kbps, 16 bits, 48.0 KHz
Субтитры: Нет
General
Unique ID : 248121995331838396359541340463100518254 (0xBAAA8EDD7BC58ED5B843B39A5062DF6E)
Complete name : Nebo.izmeryaetsya.milyami.2019.WEB-DL.1080p-LQ.mkv
Format : Matroska
Format version : Version 4 / Version 2
File size : 3.48 GiB
Duration : 1 h 30 min
Overall bit rate : 5 500 kb/s
Encoded date : UTC 2020-05-07 22:33:58
Writing application : mkvmerge v7.8.0 ('River Man') 32bit built on Mar 27 2015 16:18:02
Writing library : libebml v1.3.1 + libmatroska v1.4.2

Video
ID : 1
Format : AVC
Format/Info : Advanced Video Codec
Format profile : High@L4
Format settings, CABAC : Yes
Format settings, RefFrames : 4 frames
Codec ID : V_MPEG4/ISO/AVC
Duration : 1 h 30 min
Bit rate : 5 115 kb/s
Width : 1 920 pixels
Height : 1 036 pixels
Display aspect ratio : 1.85:1
Frame rate mode : Constant
Frame rate : 25.000 FPS
Color space : YUV
Chroma subsampling : 4:2:0
Bit depth : 8 bits
Scan type : Progressive
Bits/(Pixel*Frame) : 0.103
Stream size : 3.23 GiB (93%)
Default : Yes
Forced : No

Audio
ID : 2
Format : AC-3
Format/Info : Audio Coding 3
Format settings, Endianness : Big
Codec ID : A_AC3
Duration : 1 h 30 min
Bit rate mode : Constant
Bit rate : 384 kb/s
Channel(s) : 6 channels
Channel positions : Front: L C R, Side: L R, LFE
Sampling rate : 48.0 kHz
Frame rate : 31.250 FPS (1536 SPF)
Bit depth : 16 bits
Compression mode : Lossy
Stream size : 249 MiB (7%)
Service kind : Complete Main
Default : Yes
Forced : No
Источник http://listRutor.org

Трекер:  [ 08-Май-2020 15:00 ]

  

Скачать .torrent

Размер .torrent файла 18 KB


Размер: 3.48 GB
Хэш (hash) релиза: 14eadd3f4aa7f6d81d3c325806301d6efe7fee01
Подписка на обновления:

Торренты, похожие на Небо измеряется милями скачать торрент

Форум Название Автор Размер S L Добавлен
Российские фильмы 2016-2020 (Новинки русского кино) ·%· Небо измеряется милями (2019) WEB-DLRip от Generalfilm Galfimbul ghost 781914112746 MB 1 0 1589302209

19:50

12-Май-20

Российские фильмы 2016-2020 (Новинки русского кино) ·%· Небо измеряется милями (2019) WEB-DLRip от Generalfilm | КПК Galfimbul ghost 359899288343 MB 0 0 1589262643

08:50

12-Май-20

Российские фильмы 2016-2020 (Новинки русского кино) ·%· Небо измеряется милями (2019) WEB-DLRip от Files-x Galfimbul ghost 14769745921.38 GB 0 0 1589202701

16:11

11-Май-20

Российские фильмы 2016-2020 (Новинки русского кино) ·%· Небо измеряется милями (2019) WEB-DLRip-AVC от Files-x | iTunes Galfimbul ghost 15627928081.46 GB 0 0 1589197284

14:41

11-Май-20

Российские фильмы 2016-2020 (Новинки русского кино) ·%· Небо измеряется милями (2019) WEB-DLRip от Portablius Galfimbul ghost 786728960750 MB 1 0 1588942831

16:00

8-Май-20

Российские фильмы 2016-2020 (Новинки русского кино) ·%· Небо измеряется милями (2019) WEB-DLRip Galfimbul ghost 15675064321.46 GB 1 0 1588939333

15:02

8-Май-20

Российские фильмы 2016-2020 (Новинки русского кино) ·%· Небо измеряется милями (2019) WEB-DL 720p от ExKinoRay Galfimbul ghost 19977139971.86 GB 0 0 1588896010

03:00

8-Май-20

Еще никто не оставлял запись к записи скачать торрент Небо измеряется милями . Будь первым!

!Обратная связь