Скачать через торрент Темная Вселенная Тёмная Лига Справедливости Фильм бесплатно в хорошем качестве torrent

Скачивайте на UnionPeer.org фильмы через торрент без регистрации. Новинки кино в хорошем качестве через торрент. На UnionPeer.org можно скачать через торрент фильмы 2014 и 2015 годов. Самые новые фильмы.

Скачать торрент Темная Вселенная Тёмная Лига Справедливости бесплатно через .torrent фильм мультфильм сериал

Статистика раздачи
Размер:  1.69 GB   |    Зарегистрирован:  27 дней   |    .torrent скачан:  81 раз   |   
Раздают:  4  
 

Скачать Темная Вселенная / Тёмная Лига Справедливости / Justice League Dark (2017) BDRip-AVC от ExKinoRay | D, L через torrent

 
загрузка...
 
Автор Сообщение

Galfimbul ghost

avatar Galfimbul ghost


Темная Вселенная (Тёмная Лига Справедливости) / Justice League Dark

Год выпуска: 2017
Жанр: Мультфильм, фантастика, фэнтези, боевик, триллер, комикс, полнометражный
Выпущено: США, Warner Bros. Animation, DC Entertainment
Режиссер: Джей Олива
В ролях: Розарио Доусон, Камилла Ладдингтон, Джейсон О’Мара, Альфред Молина, Джерри О`Коннелл, Джереми Дэвис, Рэй Чейз, Мэтт Райан, Ди Брэдли Бэйкер, Роджер Р. Кросс

О фильме: Мультфильм «Темная Лига Справедливости (Justice League Dark)» очень порадует поклонников супергероев DC. Главой группы сверхъестественных героев выступает Джон Константин, в команду которого входят - Болотная тварь, Затанна, Мертвец, Демон и Черная орхидея. Все они объединяются в Темную Лигу Справедливости, чтобы взять на себя оккультные и сверхъестественные угрозы, против которых Лига Справедливости может оказаться бессильной. Сюжет многообещающий, и не зря, ведь сценаристом этого шедевра является Гильермо дель Торо.



Страна: США
Студия: Warner Bros. Animation, DC Entertainment
Продолжительность: 01:15:51
Перевод(ы):
#1. Профессиональный (дублированный) | SDI Media
#2: Любительский многоголосый (закадровый) | Shadow Dub
#3: Любительский многоголосый (закадровый) | Cтудия Saint-Sound.TV

Файл
Качество: BDRip (AVC) [исх.Justice.League.Dark.2017.1080p.BluRay.REMUX.AVC.DTS-HD.MA.5.1-FGT]
Видео: MPEG-4 AVC, 1710 Кбит/с, 1024х576
Аудио 1: 48 kHz, AC3, 5.1, 448 Kbps | Dub | RUS |
Аудио 2: 48 kHz, AC3, 2.0, 384 Kbps | Shadow Dub | RUS |
Аудио 3: 48 kHz, AC3, 2.0, 192 Kbps | Saint-Sound | RUS |
Аудио 4: 48 kHz, AC3, 5.1, 448 Kbps | ENG |
Субтитры: Русские, английские
General
Unique ID : 244672145755529992306598792057733766925 (0xB81224262112F8239E8819892213DF0D)
Complete name : F:Justice.League.Dark.2017.3xMVO.BDRip.AVC.ExKinoRay.mkv
Format : Matroska
Format version : Version 2
File size : 1.69 GiB
Duration : 1 h 16 min
Overall bit rate : 3 180 kb/s
Movie name : Justice League Dark 2017 from ExKinoRay
Encoded date : UTC 2020-05-08 11:53:01
Writing application : mkvmerge v5.6.0 ('Kenya Kane') built on May 27 2012 16:44:04
Writing library : libebml v1.2.3 + libmatroska v1.3.0

Video
ID : 1
Format : AVC
Format/Info : Advanced Video Codec
Format profile : High@L4.1
Format settings, CABAC : Yes
Format settings, ReFrames : 12 frames
Codec ID : V_MPEG4/ISO/AVC
Duration : 1 h 16 min
Bit rate : 1 710 kb/s
Width : 1 024 pixels
Height : 576 pixels
Display aspect ratio : 16:9
Frame rate mode : Constant
Frame rate : 23.976 (24000/1001) FPS
Color space : YUV
Chroma subsampling : 4:2:0
Bit depth : 8 bits
Scan type : Progressive
Bits/(Pixel*Frame) : 0.121
Stream size : 894 MiB (52%)
Title : Enigma
Writing library : x264 core 144 r2525 40bb568
Encoding settings : cabac=1 / ref=12 / deblock=1:-2:-2 / analyse=0x3:0x113 / me=umh / subme=10 / psy=1 / psy_rd=1.05:0.10 / mixed_ref=1 / me_range=32 / chroma_me=1 / trellis=2 / 8x8dct=1 / cqm=0 / deadzone=21,11 / fast_pskip=1 / chroma_qp_offset=-3 / threads=12 / lookahead_threads=3 / sliced_threads=0 / nr=0 / decimate=1 / interlaced=0 / bluray_compat=0 / constrained_intra=0 / bframes=10 / b_pyramid=2 / b_adapt=2 / b_bias=0 / direct=3 / weightb=1 / open_gop=0 / weightp=2 / keyint=240 / keyint_min=23 / scenecut=40 / intra_refresh=0 / rc_lookahead=40 / rc=2pass / mbtree=0 / bitrate=1710 / ratetol=1.0 / qcomp=0.60 / qpmin=0 / qpmax=51 / qpstep=4 / cplxblur=20.0 / qblur=0.5 / vbv_maxrate=50000 / vbv_bufsize=62500 / nal_hrd=none / filler=0 / ip_ratio=1.40 / pb_ratio=1.30 / aq=1:1.00
Language : English
Default : Yes
Forced : No
Color range : Limited
Color primaries : BT.709
Transfer characteristics : BT.709
Matrix coefficients : BT.709

Audio #1
ID : 2
Format : AC-3
Format/Info : Audio Coding 3
Mode extension : CM (complete main)
Format settings, Endianness : Big
Codec ID : A_AC3
Duration : 1 h 16 min
Bit rate mode : Constant
Bit rate : 448 kb/s
Channel(s) : 6 channels
Channel positions : Front: L C R, Side: L R, LFE
Sampling rate : 48.0 kHz
Frame rate : 31.250 FPS (1536 spf)
Compression mode : Lossy
Stream size : 244 MiB (14%)
Title : Dub (SDI Media)
Language : Russian
Default : Yes
Forced : No

Audio #2
ID : 3
Format : AC-3
Format/Info : Audio Coding 3
Mode extension : CM (complete main)
Format settings, Endianness : Big
Codec ID : A_AC3
Duration : 1 h 16 min
Bit rate mode : Constant
Bit rate : 384 kb/s
Channel(s) : 2 channels
Channel positions : Front: L R
Sampling rate : 48.0 kHz
Frame rate : 31.250 FPS (1536 spf)
Compression mode : Lossy
Stream size : 209 MiB (12%)
Title : MVO (Shadow Dub)
Language : Russian
Default : No
Forced : No

Audio #3
ID : 4
Format : AC-3
Format/Info : Audio Coding 3
Mode extension : CM (complete main)
Format settings, Endianness : Big
Codec ID : A_AC3
Duration : 1 h 16 min
Bit rate mode : Constant
Bit rate : 192 kb/s
Channel(s) : 2 channels
Channel positions : Front: L R
Sampling rate : 48.0 kHz
Frame rate : 31.250 FPS (1536 spf)
Compression mode : Lossy
Stream size : 104 MiB (6%)
Title : MVO (Saint-Sound)
Language : Russian
Default : No
Forced : No

Audio #4
ID : 5
Format : AC-3
Format/Info : Audio Coding 3
Mode extension : CM (complete main)
Format settings, Endianness : Big
Codec ID : A_AC3
Duration : 1 h 16 min
Bit rate mode : Constant
Bit rate : 448 kb/s
Channel(s) : 6 channels
Channel positions : Front: L C R, Side: L R, LFE
Sampling rate : 48.0 kHz
Frame rate : 31.250 FPS (1536 spf)
Compression mode : Lossy
Stream size : 244 MiB (14%)
Language : English
Default : No
Forced : No

Text #1
ID : 6
Format : UTF-8
Codec ID : S_TEXT/UTF8
Codec ID/Info : UTF-8 Plain Text
Language : Russian
Default : No
Forced : No

Text #2
ID : 7
Format : UTF-8
Codec ID : S_TEXT/UTF8
Codec ID/Info : UTF-8 Plain Text
Language : English
Default : No
Forced : No

Menu
00:00:00.000 : en:Chapter 01
00:12:59.069 : en:Chapter 02
00:22:23.925 : en:Chapter 03
00:33:16.953 : en:Chapter 04
00:42:14.448 : en:Chapter 05
00:54:19.965 : en:Chapter 06
01:04:17.770 : en:Chapter 07
01:12:34.141 : en:Chapter 08


Источник http://listRutor.org

Трекер:  [ 08-Май-2020 23:30 ]

  

Скачать .torrent

Размер .torrent файла 17 KB


Размер: 1.69 GB
Хэш (hash) релиза: 2545d8bc0efb7ddafe8a7553b83fe2b056e0a341
Подписка на обновления:

Торренты, похожие на Темная Вселенная Тёмная Лига Справедливости скачать торрент

Форум Название Автор Размер S L Добавлен
Мультфильмы до 2016 ·· Тёмная лига справедливости / Тёмная Вселенная / Justice League Dark (Джей Олива / Jay Oliva) [2017, мультфильм, боевик, Blu-Ray > DVD5 (Custom)] MVO + DVO + Original Eng + rus, eng sub Galfimbul ghost 46641807364.34 GB 0 0 1493222382

18:59

26-Апр-17

Еще никто не оставлял запись к записи скачать торрент Темная Вселенная Тёмная Лига Справедливости . Будь первым!

!Обратная связь