Kogawa Iori - Furukawa Iori Nasty Mother-in-law Who Censured The Son's Morning Cock UnionPeer.org HD

2015, 2014 UnionPeer.org

.

5.64 GB   |    :  3    |    .torrent :  200    |   

   
 

Galfimbul

avatar Galfimbul



Furukawa Iori Nasty Mother-in-law Who Censured The Son''s Morning Cock
古川いおり 息子の朝勃ち男根を思わず鬼咥えする淫乱義母


C: : Incest, Stepmother, Blowjob : 02:09:59 : :
: STARS-237 : SOD Create :
: Kogawa Iori
HD : 1080p : HDRip : MP4 : AVC, 1920 pixelsx1080 pixels, 29.960 FPS, 6208kb/s
: AAC, 48.0 kHz, 48.0 kHz, 192 kb/s


General
Complete name : E:\po\STARS-237.mp4
Format : MPEG-4
Format profile : Base Media
Codec ID : isom (isom/iso2/avc1/mp41)
File size : 5.64 GiB
Duration : 2 h 9 min
Overall bit rate : 6 208 kb/s
Writing application : Lavf58.10.100

Video
ID : 1
Format : AVC
Format/Info : Advanced Video Codec
Format profile : [email protected]
Format settings : 1 Ref Frames
Format settings, CABAC : No
Format settings, Reference : 1 frame
Codec ID : avc1
Codec ID/Info : Advanced Video Coding
Duration : 2 h 9 min
Bit rate : 6 000 kb/s
Width : 1 920 pixels
Height : 1 080 pixels
Display aspect ratio : 16:9
Frame rate mode : Constant
Frame rate : 29.970 (30000/1001) FPS
Color space : YUV
Chroma subsampling : 4:2:0
Bit depth : 8 bits
Scan type : Progressive
Bits/(Pixel*Frame) : 0.097
Stream size : 5.45 GiB (97%)
Writing library : x264 core 155 r2901 7d0ff22
Encoding settings : cabac=0 / ref=1 / deblock=1:0:0 / analyse=0x1:0x111 / me=hex / subme=2 / psy=1 / psy_rd=1.00:0.00 / mixed_ref=0 / me_range=16 / chroma_me=1 / trellis=0 / 8x8dct=0 / cqm=0 / deadzone=21,11 / fast_pskip=1 / chroma_qp_offset=0 / threads=18 / lookahead_threads=6 / sliced_threads=0 / nr=0 / decimate=1 / interlaced=0 / bluray_compat=0 / constrained_intra=0 / bframes=0 / weightp=0 / keyint=250 / keyint_min=25 / scenecut=40 / intra_refresh=0 / rc_lookahead=10 / rc=abr / mbtree=1 / bitrate=6000 / ratetol=1.0 / qcomp=0.60 / qpmin=0 / qpmax=69 / qpstep=4 / ip_ratio=1.40 / aq=1:1.00
Codec configuration box : avcC

Audio
ID : 2
Format : AAC LC
Format/Info : Advanced Audio Codec Low Complexity
Codec ID : mp4a-40-2
Duration : 2 h 9 min
Bit rate mode : Constant
Bit rate : 192 kb/s
Channel(s) : 2 channels
Channel layout : L R
Sampling rate : 48.0 kHz
Frame rate : 46.875 FPS (1024 SPF)
Compression mode : Lossy
Stream size : 179 MiB (3%)
Default : Yes
Alternate group : 1


! AdBlock , )))
 ·  , , FAQ-
:  [ 10--2020 00:40 ]

  

.torrent

.torrent 28 KB


: 5.64 GB
(hash) : 99d042eeea8f8a6c5e4cb8b39c9e34ccd108da43
··
...

Kogawa Iori - Furukawa Iori Nasty Mother-in-law Who Censured The Son's Morning Cock . !

!