Скачать порно через торрент [IrmaosDotados.com.br] Edu and Erick fuck and DP Dan UnionPeer.org бесплатно онлайн HD качество

Скачать новое порно 2015, 2014 новинки через торрент UnionPeer.org

Порно торрент бесплатно ЮнионПир.орг

Статистика раздачи
Размер:  1.29 GB   |    Зарегистрирован:  2 года 3 месяца   |    .torrent скачан:  263 раза   |   

Пиры будут получены при скачивании

   
 
Автор Сообщение

Galfimbul

avatar Galfimbul




[IrmãosDotados.com.br] Edu and Erick fuck and DP Dan / Edu e Erick dupla penetração no Dan


Имя актера: Dan Albuquerque, Edu Albuquerque, Erick Diaz
Подсайт и сайт: IrmaosDotados.com.br

Год производства: 2019 г.
Жанр: Anal Sex, Bareback, Big Dicks, Blowjob, Cumshot, DAP, Facial, Hairy, Incest, Kissing, Latinos, Masturbation, Muscles, Rimming, Threesome, Uncut.
Продолжительность: 00:30:10

Описание: IrmãosDotados - Edu & Erick Fazem DP no Dan - Erick Diaz, Edu & Dan Albuquerque (Irmãos putões fazem uma suruba com dupla penetração com o novinho mega dotado Erick Diaz, putaria sem capa e com gozada no cu e na boca)

Доп. информация: официальный релиз - 2019

Тип HD видео: 1080p
Формат видео: MP4
Видео: AVC, 1912x1080 (16:9), 30.000 fps, 5 969 Kbps (0.096 bit/pixel)
Аудио: AAC LC, 48.0 KHz, 2 ch, 129 Kbps


Общее
Полное имя : [IrmaosDotados] Edu and Erick fuck and DP Dan - 1080p.mp4
Формат : MPEG-4
Профиль формата : Base Media
Идентификатор кодека : isom (isom/iso2/avc1/mp41)
Размер файла : 1,29 Гбайт
Продолжительность : 30 м. 10 с.
Режим общего битрейта : Переменный
Общий поток : 6 107 Кбит/сек

Видео
Идентификатор : 1
Формат : AVC
Формат/Информация : Advanced Video Codec
Профиль формата : High@L4.1
Настройки формата : CABAC / 3 Ref Frames
Параметр CABAC формата : Да
Параметр RefFrames формата : 3 кадра
Идентификатор кодека : avc1
Идентификатор кодека/Информация : Advanced Video Coding
Продолжительность : 30 м. 10 с.
Битрейт : 5 969 Кбит/сек
Ширина : 1 912 пикселей
Ширина оригинала : 1 918 пикселей
Высота : 1 086 пикселей
Высота оригинала : 1 080 пикселей
Соотношение сторон : 16:9
Режим частоты кадров : Переменный
Частота кадров : 30,000 кадров/сек
Минимальная частота кадров : 7,500 кадров/сек
Максимальная частота кадров : 90,000 кадров/сек
Цветовое пространство : YUV
Субдискретизация насыщенности : 4:2:0
Битовая глубина : 8 бит
Тип развёртки : Прогрессивная
Бит/(Пиксели*Кадры) : 0.096
Размер потока : 1,26 Гбайт (98%)
Библиотека кодирования : x264 core 155 r2901 7d0ff22
Настройки программы : cabac=1 / ref=3 / deblock=1:0:0 / analyse=0x3:0x113 / me=hex / subme=6 / psy=1 / psy_rd=1.00:0.00 / mixed_ref=1 / me_range=16 / chroma_me=1 / trellis=1 / 8x8dct=1 / cqm=0 / deadzone=21,11 / fast_pskip=1 / chroma_qp_offset=-2 / threads=34 / lookahead_threads=5 / sliced_threads=0 / nr=0 / decimate=1 / interlaced=0 / bluray_compat=0 / constrained_intra=0 / bframes=2 / b_pyramid=0 / b_adapt=0 / b_bias=0 / direct=1 / weightb=1 / open_gop=0 / weightp=1 / keyint=60 / keyint_min=31 / scenecut=40 / intra_refresh=0 / rc_lookahead=30 / rc=crf / mbtree=1 / crf=20.0 / qcomp=0.60 / qpmin=0 / qpmax=69 / qpstep=4 / vbv_maxrate=6000 / vbv_bufsize=6000 / crf_max=0.0 / nal_hrd=none / filler=0 / ip_ratio=1.40 / aq=1:1.00
mdhd_Duration : 1810833
Codec configuration box : avcC

Аудио
Идентификатор : 2
Формат : AAC LC
Формат/Информация : Advanced Audio Codec Low Complexity
Идентификатор кодека : mp4a-40-2
Продолжительность : 30 м. 10 с.
Вид битрейта : Переменный
Битрейт : 128 Кбит/сек
Максимальный битрейт : 274 Кбит/сек
Каналы : 2 канала
Channel layout : L R
Частота : 44,1 КГц
Частота кадров : 43,066 кадра/сек (1024 SPF)
Метод сжатия : С потерями
Размер потока : 27,6 Мбайт (2%)
mdhd_Duration : 1810855


Внимание! AdBlock блокирует показ скриншотов, все вопросы к разработчикам )))
Трекер:  [ 10-Май-2020 00:43 ]

  

Скачать .torrent

Размер .torrent файла 13 KB


Размер: 1.29 GB
Хэш (hash) релиза: 1c7eedb23f5da9d35d259ad90f9c7efaf6e9ad91

Еще никто не оставлял запись к записи скачать торрент [IrmaosDotados.com.br] Edu and Erick fuck and DP Dan . Будь первым!

!Обратная связь