Скачать через торрент Жизнь лампы Lamp Life Фильм бесплатно в хорошем качестве torrent

Скачивайте на UnionPeer.org фильмы через торрент без регистрации. Новинки кино в хорошем качестве через торрент. На UnionPeer.org можно скачать через торрент фильмы 2014 и 2015 годов. Самые новые фильмы.

Скачать торрент Жизнь лампы Lamp Life бесплатно через .torrent фильм мультфильм сериал

Статистика раздачи
Размер:  608 MB   |    Зарегистрирован:  20 дней   |    .torrent скачан:  67 раз   |   

Пиры будут получены при скачивании

 

Скачать Жизнь лампы / Lamp Life (2020) WEBRip 1080p | D | Flarrow Films через torrent

 
загрузка...
 
Автор Сообщение

Galfimbul ghost

avatar Galfimbul ghost


Жизнь лампы /Lamp Life

Год выхода: 2020
Жанр: мультфильм, короткометражка, фэнтези, семейный
Режиссер: Валери ЛаПойнт
В ролях: Кристина Хендрикс, Энни Поттс, Джим Хэнкс, Эмили Дэвис, Кэрри Пафф, Эмилио Гарсиа-Санчес

О фильме:
Приквел мультфильма "История игрушек 4". История посвящена приключениям фарфоровой куклы Бо Пип, украшающей симпатичную настольную лампу. Казалось бы, какие могут быть приключения у фигурки, стоящей неподвижно? Но это лишь одна сторона ее жизни, а когда никто из людей не видит, куколка оживает.

Страна: США
Продолжительность: 00:11:07
Перевод: Дублированный (любительский) | Flarrow Films

Файл
Формат: MKV
Кодек: MPEG-4 AVC
Качество: WEBRip 1080p
Видео: 1920х804, ~ 14.0 Mb/s, 23.976 FPS, 8 bits
Звук: AC-3, 320 kb/s, 2 channels, 48.0 kHz
Субтитры: отсутствуют
General
Unique ID : 27066889371066580235830596628568780172 (0x145CE4AD9CC7E348A31869B6AAC6AD8C)
Complete name : C:FlarrowЖизнь.Лампы.2020.Flarrow.Films.mkv
Format : Matroska
Format version : Version 4
File size : 608 MiB
Duration : 11 min 7 s
Overall bit rate mode : Variable
Overall bit rate : 7 642 kb/s
Encoded date : UTC 2020-05-10 13:57:14
Writing application : mkvmerge v32.0.0 ('Astral Progressions') 64-bit
Writing library : libebml v1.3.7 + libmatroska v1.5.0

Video
ID : 1
Format : AVC
Format/Info : Advanced Video Codec
Format profile : Main@L4.1
Format settings : CABAC / 2 Ref Frames
Format settings, CABAC : Yes
Format settings, Reference : 2 frames
Format settings, GOP : M=3, N=23
Codec ID : V_MPEG4/ISO/AVC
Duration : 11 min 7 s
Bit rate mode : Variable
Bit rate : 7 320 kb/s
Maximum bit rate : 14.0 Mb/s
Width : 1 920 pixels
Height : 804 pixels
Display aspect ratio : 2.40:1
Frame rate mode : Constant
Frame rate : 23.976 (24000/1001) FPS
Color space : YUV
Chroma subsampling : 4:2:0
Bit depth : 8 bits
Scan type : Progressive
Bits/(Pixel*Frame) : 0.198
Stream size : 582 MiB (96%)
Language : English
Default : Yes
Forced : No

Audio
ID : 2
Format : AC-3
Format/Info : Audio Coding 3
Commercial name : Dolby Digital
Codec ID : A_AC3
Duration : 11 min 6 s
Bit rate mode : Constant
Bit rate : 320 kb/s
Channel(s) : 2 channels
Channel layout : L R
Sampling rate : 48.0 kHz
Frame rate : 31.250 FPS (1536 SPF)
Compression mode : Lossy
Stream size : 25.4 MiB (4%)
Service kind : Complete Main
Default : Yes
Forced : No


Примечание: Без интро Flarrow Films


Источник http://listRutor.org

Трекер:  [ 10-Май-2020 18:10 ]

  

Скачать .torrent

Размер .torrent файла 12 KB


Размер: 608 MB
Хэш (hash) релиза: 7a8b611346f149e48cc529006d2049eeaa9a8105
Подписка на обновления:

Еще никто не оставлял запись к записи скачать торрент Жизнь лампы Lamp Life . Будь первым!

!Обратная связь