Okuda Saki - Midnight ... After My Wife Goes To Bed, It Is Our Daily Routine To Have A Terrific SEX Like A Beast With My Wife's Sister-in-law UnionPeer.org HD

2015, 2014 UnionPeer.org

.

4.89 GB   |    :  3    |    .torrent :  106    |   

   
 

Galfimbul

avatar Galfimbul



["You Want Me To Say ... Sorry, Right? ] Midnight ... After My Wife Goes To Bed, It Is Our Daily Routine To Have A Terrific SEX Like A Beast With My Wife''s Sister-in-law (Ane) Who Is In The Air.
深夜0時 妻が就寝した後、居候中の妻の義姉(アネ)と獣の如く凄まじいSEXをする事が毎晩の日課です。


C: : Big Tits, Cuckold, Blowjob : 01:58:27 : :
: SSNI-769 : S1 NO.1 STYLE :
: Okuda Saki
HD : 1080p : HDRip : MP4 : AVC, 1920 pixelsx1080 pixels, 29.960 FPS, 5911kb/s
: AAC, 48.0 kHz, 48.0 kHz, 192 kb/s


General
Complete name : E:\po\SSNI-769.mp4
Format : MPEG-4
Format profile : Base Media
Codec ID : isom (isom/iso2/avc1/mp41)
File size : 4.89 GiB
Duration : 1 h 58 min
Overall bit rate : 5 911 kb/s
Writing application : Lavf58.30.100

Video
ID : 1
Format : AVC
Format/Info : Advanced Video Codec
Format profile : [email protected]
Format settings : CABAC / 4 Ref Frames
Format settings, CABAC : Yes
Format settings, Reference : 4 frames
Codec ID : avc1
Codec ID/Info : Advanced Video Coding
Duration : 1 h 58 min
Bit rate : 5 708 kb/s
Nominal bit rate : 6 000 kb/s
Width : 1 920 pixels
Height : 1 080 pixels
Display aspect ratio : 16:9
Frame rate mode : Constant
Frame rate : 29.970 (30000/1001) FPS
Color space : YUV
Chroma subsampling : 4:2:0
Bit depth : 8 bits
Scan type : Progressive
Bits/(Pixel*Frame) : 0.092
Stream size : 4.72 GiB (97%)
Writing library : x264 core 158 r2984 3759fcb
Encoding settings : cabac=1 / ref=2 / deblock=1:0:0 / analyse=0x1:0x111 / me=hex / subme=6 / psy=1 / psy_rd=1.00:0.00 / mixed_ref=1 / me_range=16 / chroma_me=1 / trellis=1 / 8x8dct=0 / cqm=0 / deadzone=21,11 / fast_pskip=1 / chroma_qp_offset=-2 / threads=34 / lookahead_threads=5 / sliced_threads=0 / nr=0 / decimate=1 / interlaced=0 / bluray_compat=0 / constrained_intra=0 / bframes=3 / b_pyramid=2 / b_adapt=1 / b_bias=0 / direct=1 / weightb=1 / open_gop=0 / weightp=1 / keyint=250 / keyint_min=25 / scenecut=40 / intra_refresh=0 / rc_lookahead=30 / rc=cbr / mbtree=1 / bitrate=6000 / ratetol=1.0 / qcomp=0.60 / qpmin=0 / qpmax=69 / qpstep=4 / vbv_maxrate=6000 / vbv_bufsize=6000 / nal_hrd=none / filler=0 / ip_ratio=1.40 / aq=1:1.00
Codec configuration box : avcC

Audio
ID : 2
Format : AAC LC
Format/Info : Advanced Audio Codec Low Complexity
Codec ID : mp4a-40-2
Duration : 1 h 58 min
Bit rate mode : Constant
Bit rate : 192 kb/s
Channel(s) : 2 channels
Channel layout : L R
Sampling rate : 48.0 kHz
Frame rate : 46.875 FPS (1024 SPF)
Compression mode : Lossy
Stream size : 163 MiB (3%)
Default : Yes
Alternate group : 1


! AdBlock , )))
 ·  , , FAQ-
:  [ 11--2020 01:30 ]

  

.torrent

.torrent 25 KB


: 4.89 GB
(hash) : 53d171526f15c74a1919e7cdbecc81aba5c64b0c
··
...

Okuda Saki - Midnight ... After My Wife Goes To Bed, It Is Our Daily Routine To Have A Terrific SEX Like A Beast With My Wife's Sister-in-law . !

!