Sakura Momo - Big Breasts Wife Cuckold By A Personal Trainer Time Limit NTR 9 Shots In A Row! !! Momo Sakurazora UnionPeer.org HD

2015, 2014 UnionPeer.org

.

4.89 GB   |    :  3    |    .torrent :  87    |   

   
 

Galfimbul

avatar Galfimbul



Big Breasts Wife Cuckold By A Personal Trainer Time Limit NTR 9 Shots In A Row! !! Momo Sakurazora
パーソナルトレーナーに寝取られた巨乳妻 時間制限NTR連続9発!! 桜空もも


C: : Solowork, Big Tits, Cuckold : 01:57:11 : :
: IPX-485 : Idea Pocket :
: Sakura Momo
HD : 1080p : HDRip : MP4 : AVC, 1920 pixelsx1080 pixels, 29.960 FPS, 5744kb/s
: AAC, 48.0 kHz, 48.0 kHz, 256 kb/s


General
Complete name : E:\po\IPX-485.mp4
Format : MPEG-4
Format profile : Base Media
Codec ID : isom (isom/iso2/avc1/mp41)
File size : 4.89 GiB
Duration : 1 h 57 min
Overall bit rate : 5 975 kb/s
Writing application : Lavf58.42.102

Video
ID : 1
Format : AVC
Format/Info : Advanced Video Codec
Format profile : [email protected]
Format settings : CABAC / 3 Ref Frames
Format settings, CABAC : Yes
Format settings, Reference : 3 frames
Codec ID : avc1
Codec ID/Info : Advanced Video Coding
Duration : 1 h 57 min
Bit rate : 5 744 kb/s
Width : 1 920 pixels
Height : 1 080 pixels
Display aspect ratio : 16:9
Frame rate mode : Variable
Frame rate : 29.970 (29970/1000) FPS
Minimum frame rate : 29.412 FPS
Maximum frame rate : 30.303 FPS
Color space : YUV
Chroma subsampling : 4:2:0
Bit depth : 8 bits
Scan type : Progressive
Bits/(Pixel*Frame) : 0.092
Stream size : 4.67 GiB (96%)
Writing library : x264 core 157 r2945 72db437
Encoding settings : cabac=1 / ref=3 / deblock=1:1:0 / analyse=0x1:0x131 / me=hex / subme=7 / psy=1 / psy_rd=0.50:0.00 / mixed_ref=1 / me_range=16 / chroma_me=1 / trellis=1 / 8x8dct=0 / cqm=0 / deadzone=21,11 / fast_pskip=0 / chroma_qp_offset=-2 / threads=12 / lookahead_threads=2 / sliced_threads=0 / nr=0 / decimate=1 / interlaced=0 / bluray_compat=0 / constrained_intra=0 / bframes=3 / b_pyramid=0 / b_adapt=1 / b_bias=0 / direct=1 / weightb=1 / open_gop=0 / weightp=2 / keyint=infinite / keyint_min=60 / scenecut=0 / intra_refresh=0 / rc_lookahead=40 / rc=cbr / mbtree=1 / bitrate=5744 / ratetol=1.0 / qcomp=0.60 / qpmin=10 / qpmax=69 / qpstep=4 / vbv_maxrate=5744 / vbv_bufsize=12000 / nal_hrd=none / filler=0 / ip_ratio=1.41 / aq=1:1.00
Codec configuration box : avcC

Audio
ID : 2
Format : AAC LC
Format/Info : Advanced Audio Codec Low Complexity
Codec ID : mp4a-40-2
Duration : 1 h 57 min
Bit rate mode : Constant
Bit rate : 256 kb/s
Channel(s) : 2 channels
Channel layout : L R
Sampling rate : 48.0 kHz
Frame rate : 46.875 FPS (1024 SPF)
Compression mode : Lossy
Stream size : 215 MiB (4%)
Default : Yes
Alternate group : 1


! AdBlock , )))
 ·  , , FAQ-
:  [ 13--2020 00:40 ]

  

.torrent

.torrent 25 KB


: 4.89 GB
(hash) : 0208f3320e8cb7997905d1d5b3ae608c868acc97
··
...

Sakura Momo - Big Breasts Wife Cuckold By A Personal Trainer Time Limit NTR 9 Shots In A Row! !! Momo Sakurazora . !

!