Скачать через торрент Ловушка разума The Wave Фильм бесплатно в хорошем качестве torrent

Скачивайте на UnionPeer.org фильмы через торрент без регистрации. Новинки кино в хорошем качестве через торрент. На UnionPeer.org можно скачать через торрент фильмы 2014 и 2015 годов. Самые новые фильмы.

Скачать торрент Ловушка разума The Wave бесплатно через .torrent фильм мультфильм сериал

Статистика раздачи
Размер:  4.03 GB   |    Зарегистрирован:  17 дней   |    .torrent скачан:  130 раз   |   

Пиры будут получены при скачивании

 

Скачать Ловушка разума / The Wave (2019) WEB-DL 1080p | iTunes через torrent

 
загрузка...
 
Автор Сообщение

Galfimbul ghost

avatar Galfimbul ghost


Название: Ловушка разума
Оригинальное название: The Wave
Год выпуска: 2019
Жанр: Фантастика, триллер
Режиссер: Гилле Клабин
В ролях: Джастин Лонг, Томми Флэнаган, Катя Винтер, Дональд Фэйзон, Шейла Ванд, Сара Минник, Билл Сейдж, Моник Канделария, Ронни Джин Блевинс, Блайт Ховард

О фильме: Страховой адвокат начинает принимать загадочный галлюциногенный препарат, который постепенно разрушает его восприятие реальности и выставляет напоказ его жизнь такой, какой она и является на самом деле.



Страна: США
Студия: EchoWolf Productions
Продолжительность: 01:27:18
Перевод: Дублированный | iTunes

Файл
Качество: WEB-DL 1080p
Контейнер: MKV
Видео: MPEG-4 AVC, 1920x800 (2.40:1), 5579 kbps, 23.976 fps
Аудио 1: Russian: АС3, 6 ch, 48 kHz, 384 kbps, 16 bits - DUB, iTunes
Аудио 2: English: EАС3, 6 ch, 48 kHz, 640 kbps, 16 bits - Original
Субтитры: Английские (Full, SDH)
General
Unique ID : 35312757230734972699476736432749446235 (0x1A90FD5A287FB6427BF45E312110845B)
Complete name : T_WAVE_2019_WEB-DL_1080p_AMZN-BLUEBIRD.mkv
Format : Matroska
Format version : Version 4 / Version 2
File size : 4.03 GiB
Duration : 1 h 27 min
Overall bit rate : 6 606 kb/s
Encoded date : UTC 2020-05-13 18:42:23
Writing application : mkvmerge v43.0.0 ('The Quartermaster') 64-bit
Writing library : libebml v1.3.10 + libmatroska v1.5.2
Cover : Yes
Attachments : cover.jpg

Video
ID : 1
Format : AVC
Format/Info : Advanced Video Codec
Format profile : High@L4
Format settings, CABAC : Yes
Format settings, RefFrames : 4 frames
Codec ID : V_MPEG4/ISO/AVC
Duration : 1 h 27 min
Bit rate mode : Constant
Bit rate : 5 579 kb/s
Nominal bit rate : 10 000 kb/s
Width : 1 920 pixels
Height : 800 pixels
Display aspect ratio : 2.40:1
Frame rate mode : Constant
Frame rate : 23.976 (24000/1001) FPS
Color space : YUV
Chroma subsampling : 4:2:0
Bit depth : 8 bits
Scan type : Progressive
Bits/(Pixel*Frame) : 0.151
Stream size : 3.40 GiB (84%)
Default : Yes
Forced : No
Color range : Limited
Color primaries : BT.709
Transfer characteristics : BT.709
Matrix coefficients : BT.709

Audio #1
ID : 2
Format : AC-3
Format/Info : Audio Coding 3
Format settings, Endianness : Big
Codec ID : A_AC3
Duration : 1 h 27 min
Bit rate mode : Constant
Bit rate : 384 kb/s
Channel(s) : 6 channels
Channel positions : Front: L C R, Side: L R, LFE
Sampling rate : 48.0 kHz
Frame rate : 31.250 FPS (1536 SPF)
Bit depth : 16 bits
Compression mode : Lossy
Stream size : 240 MiB (6%)
Title : [DUB] DD 5.1 @ 384 kbps (iTunes)
Language : Russian
Service kind : Complete Main
Default : Yes
Forced : No

Audio #2
ID : 3
Format : E-AC-3
Format/Info : Enhanced Audio Coding 3
Format settings, Endianness : Big
Codec ID : A_EAC3
Duration : 1 h 27 min
Bit rate mode : Constant
Bit rate : 640 kb/s
Channel(s) : 6 channels
Channel positions : Front: L C R, Side: L R, LFE
Sampling rate : 48.0 kHz
Frame rate : 187.500 FPS (256 SPF)
Compression mode : Lossy
Stream size : 400 MiB (10%)
Title : [ORIGINAL] DD+ 5.1 @ 640 kbps (Amazon)
Language : English
Service kind : Complete Main
Default : No
Forced : No

Text #1
ID : 4
Format : UTF-8
Codec ID : S_TEXT/UTF8
Codec ID/Info : UTF-8 Plain Text
Duration : 1 h 22 min
Bit rate : 85 b/s
Count of elements : 1677
Stream size : 51.5 KiB (0%)
Title : Full-length
Language : English
Default : No
Forced : No

Text #2
ID : 5
Format : UTF-8
Codec ID : S_TEXT/UTF8
Codec ID/Info : UTF-8 Plain Text
Duration : 1 h 22 min
Bit rate : 91 b/s
Count of elements : 1880
Stream size : 55.4 KiB (0%)
Title : SDH
Language : English
Default : No
Forced : No
Источник http://listRutor.org

Трекер:  [ 14-Май-2020 00:40 ]

  

Скачать .torrent

Размер .torrent файла 20 KB


Размер: 4.03 GB
Хэш (hash) релиза: 2fbc31ffc720965b823ab6fb3ac8ce90eb564d37
Подписка на обновления:

Еще никто не оставлял запись к записи скачать торрент Ловушка разума The Wave . Будь первым!

!Обратная связь