Скачать порно через торрент Hentai heaven collection 02: Daraku Reijou The Animation Sexual Sacrifice UnionPeer.org бесплатно онлайн HD качество

Скачать новое порно 2015, 2014 новинки через торрент UnionPeer.org

Порно торрент бесплатно ЮнионПир.орг

Статистика раздачи
Размер:  12.44 GB   |    Зарегистрирован:  3 года 9 месяцев   |    .torrent скачан:  593 раза   |   

Пиры будут получены при скачивании

   
 
Автор Сообщение

Galfimbul

avatar Galfimbul


Daraku Reijou The Animation
堕落令嬢 THE ANIMATION
Sexual Sacrifice


Год выпуска: 2016
Жанр: drama, school, virgin, big breast, oral, creampie
Серии: ep. 1 of 1
Продолжительность: 17mn
Цензура: Отсутствует

Озвучка: Японская оригинальная
Озвучка: Английская профессиональная (полное дублирование)
Субтитры: Английские встроенные BGS

Режиссер: Raika Ken
Автор оригинала: Kemigawa
Студия: T-Rex, Bootleg, MS Pictures

Описание: Он обычный студент, который безумно влюблен в свою сэмпай, она отвечает ему взаимностью. Но вскоре она отдаляется от него, а потом и вовсе пропадает...

anidb

Качество видео: Blu-Ray
Формат видео: BD Video
Видео: AVC, 1920-1080, 16-9, 23.976 fps, 25.3 mbps
Аудио 1: jap, PCM, Stereo, 48.0 KHz, 1536 Kbps
Аудио 2: eng, PCM, Stereo, 48.0 KHz, 1536 Kbps

General
ID : 0 (0x0)
Complete name : 00000.m2ts
Format : BDAV
Format/Info : Blu-ray Video
File size : 3.52 GiB
Duration : 17 min 2 s
Overall bit rate mode : Variable
Overall bit rate : 29.6 Mb/s
Maximum Overall bit rate : 48.0 Mb/s

Video
ID : 4113 (0x1011)
Menu ID : 1 (0x1)
Format : AVC
Format/Info : Advanced Video Codec
Format profile : [email protected]
Format settings : CABAC / 4 Ref Frames
Format settings, CABAC : Yes
Format settings, RefFrames : 4 frames
Codec ID : 27
Duration : 17 min 2 s
Bit rate mode : Variable
Bit rate : 25.3 Mb/s
Maximum bit rate : 30.0 Mb/s
Width : 1 920 pixels
Height : 1 080 pixels
Display aspect ratio : 16:9
Frame rate : 23.976 (24000/1001) FPS
Standard : NTSC
Color space : YUV
Chroma subsampling : 4:2:0
Bit depth : 8 bits
Scan type : Progressive
Bits/(Pixel*Frame) : 0.509
Stream size : 3.01 GiB (86%)
Color range : Limited
Color primaries : BT.709
Transfer characteristics : BT.709
Matrix coefficients : BT.709

Audio #1
ID : 4352 (0x1100)
Menu ID : 1 (0x1)
Format : PCM
Format settings : Big / Signed
Muxing mode : Blu-ray
Codec ID : 128
Duration : 17 min 2 s
Bit rate mode : Constant
Bit rate : 1 536 kb/s
Channel(s) : 2 channels
Channel layout : L R
Sampling rate : 48.0 kHz
Bit depth : 16 bits
Stream size : 187 MiB (5%)

Audio #2
ID : 4353 (0x1101)
Menu ID : 1 (0x1)
Format : PCM
Format settings : Big / Signed
Muxing mode : Blu-ray
Codec ID : 128
Duration : 17 min 2 s
Bit rate mode : Constant
Bit rate : 1 536 kb/s
Channel(s) : 2 channels
Channel layout : L R
Sampling rate : 48.0 kHz
Bit depth : 16 bits
Stream size : 187 MiB (5%)

Text #1
ID : 4608 (0x1200)
Menu ID : 1 (0x1)
Format : PGS
Codec ID : 144

Text #2
ID : 4609 (0x1201)
Menu ID : 1 (0x1)
Format : PGS
Codec ID : 144

Shoujo-tachi no Sadism The Animation
少女達の茶道ism[サディズム] THE ANIMATION
Too Hot For Teacher
Барышни-садистки из клуба чаепития


Год выпуска: 2016
Жанр: school, virgin, footjob, foot fetich, stocking, oral, group, creampie
Серии: ep. 1-2 of 2
Продолжительность: 2*16mn
Цензура: Отсутствует

Озвучка: Японская оригинальная
Озвучка: Английская профессиональная (полное дублирование)
Субтитры: Английские встроенные BGS

Режиссер: Tsujimura Umeko
Автор оригинала: Tsukiyoshi Hiroki
Студия: Studio Eromatick, Chippai, MS Pictures

Описание: Учитель курировал клуб чаепития, но однажды девушкам надоел чай и они решили немного поиздеваться над ним.

anidb

Качество видео: Blu-Ray
Формат видео: BD Video
Видео: AVC, 1920-1080, 16-9, 23.976 fps, 25.3 mbps
Аудио 1: jap, PCM, Stereo, 48.0 KHz, 1536 Kbps
Аудио 2: eng, PCM, Stereo, 48.0 KHz, 1536 Kbps

General
ID : 0 (0x0)
Complete name : 00001.m2ts
Format : BDAV
Format/Info : Blu-ray Video
File size : 3.41 GiB
Duration : 16 min 28 s
Overall bit rate mode : Variable
Overall bit rate : 29.7 Mb/s
Maximum Overall bit rate : 48.0 Mb/s

Video
ID : 4113 (0x1011)
Menu ID : 1 (0x1)
Format : AVC
Format/Info : Advanced Video Codec
Format profile : [email protected]
Format settings : CABAC / 4 Ref Frames
Format settings, CABAC : Yes
Format settings, RefFrames : 4 frames
Codec ID : 27
Duration : 16 min 28 s
Bit rate mode : Variable
Bit rate : 25.4 Mb/s
Maximum bit rate : 30.0 Mb/s
Width : 1 920 pixels
Height : 1 080 pixels
Display aspect ratio : 16:9
Frame rate : 23.976 (24000/1001) FPS
Standard : NTSC
Color space : YUV
Chroma subsampling : 4:2:0
Bit depth : 8 bits
Scan type : Progressive
Bits/(Pixel*Frame) : 0.511
Stream size : 2.92 GiB (86%)
Color range : Limited
Color primaries : BT.709
Transfer characteristics : BT.709
Matrix coefficients : BT.709

Audio #1
ID : 4352 (0x1100)
Menu ID : 1 (0x1)
Format : PCM
Format settings : Big / Signed
Muxing mode : Blu-ray
Codec ID : 128
Duration : 16 min 28 s
Bit rate mode : Constant
Bit rate : 1 536 kb/s
Channel(s) : 2 channels
Channel layout : L R
Sampling rate : 48.0 kHz
Bit depth : 16 bits
Stream size : 181 MiB (5%)

Audio #2
ID : 4353 (0x1101)
Menu ID : 1 (0x1)
Format : PCM
Format settings : Big / Signed
Muxing mode : Blu-ray
Codec ID : 128
Duration : 16 min 28 s
Bit rate mode : Constant
Bit rate : 1 536 kb/s
Channel(s) : 2 channels
Channel layout : L R
Sampling rate : 48.0 kHz
Bit depth : 16 bits
Stream size : 181 MiB (5%)

Text #1
ID : 4608 (0x1200)
Menu ID : 1 (0x1)
Format : PGS
Codec ID : 144

Text #2
ID : 4609 (0x1201)
Menu ID : 1 (0x1)
Format : PGS
Codec ID : 144

От торрент иваниваныч – там двд, здесь бд.


Внимание! AdBlock блокирует показ скриншотов, все вопросы к разработчикам )))
Трекер:  [ 15-Май-2020 00:03 ]

  

Скачать .torrent

Размер .torrent файла 67 KB


Размер: 12.44 GB
Хэш (hash) релиза: 40ed4e11b8920a8a7ea50be1d781a00d4ec3537b

Еще никто не оставлял запись к записи скачать торрент Hentai heaven collection 02: Daraku Reijou The Animation Sexual Sacrifice . Будь первым!

!Обратная связь