Скачать порно через торрент Hentai heaven collection 06: Mou Hasamazu ni wa Irarenai: Hoshi ni Onegai Shitara Konna ni Okkiku Nacchatta! UnionPeer.org бесплатно онлайн HD качество

Скачать новое порно 2015, 2014 новинки через торрент UnionPeer.org

Порно торрент бесплатно ЮнионПир.орг

Статистика раздачи
Размер:  13.77 GB   |    Зарегистрирован:  3 года 9 месяцев   |    .torrent скачан:  373 раза   |   

Пиры будут получены при скачивании

   
 
Автор Сообщение

Galfimbul

avatar Galfimbul


Mou Hasamazu ni wa Irarenai: Hoshi ni Onegai Shitara Konna ni Okkiku Nacchatta!
もう挟まずにはいられない ~星にお願いしたらこんなにおっきくなっちゃった!
Они так выросли после того, как я загадала желание на падающую звезду!


Год выпуска: 2014
Жанр: big breast, alien, oral, paizuri, creampie
Серии: ep. 1 of 1 + bonus
Продолжительность: 20+3mn
Цензура: Отсутствует

Озвучка: Японская оригинальная
Озвучка: Английская профессиональная (полное дублирование)
Субтитры: Английские встроенные BGS

Автор оригинала: Kaizuka, Kill Time Communication
Режиссёр: Ooyama Takashi
Студия: Peak Hunt, Pashmina & Friends

Описание: An alien crashes into Amano Inori and while fixing her body, makes her smarter, more athletic, prettier, and increases her bust size about five cups by accident. The alien then requests to monitor her, since he came to Earth to monitor humans anyway, and doesn''t really do anything to her until she sees Sugiuchi and Amano Inori get horny. The alien then manipulates Amano Inori''s body and makes her start having sex with Sugiuchi.

Source: MyAnimeList

anidb

Качество видео: Blu-Ray
Формат видео: BD Video
Видео: AVC, 1920-1080, 16-9, 23.976 fps, 20.7 mbps
Аудио 1: jap, PCM, Stereo, 48.0 KHz, 1536 Kbps
Аудио 2: eng, PCM, Stereo, 48.0 KHz, 1536 Kbps

General
ID : 0 (0x0)
Complete name : 00002.m2ts
Format : BDAV
Format/Info : Blu-ray Video
File size : 3.46 GiB
Duration : 20 min 0 s
Overall bit rate mode : Variable
Overall bit rate : 24.8 Mb/s
Maximum Overall bit rate : 48.0 Mb/s

Video
ID : 4113 (0x1011)
Menu ID : 1 (0x1)
Format : AVC
Format/Info : Advanced Video Codec
Format profile : [email protected]
Format settings : CABAC / 4 Ref Frames
Format settings, CABAC : Yes
Format settings, RefFrames : 4 frames
Codec ID : 27
Duration : 20 min 1 s
Bit rate mode : Variable
Bit rate : 20.7 Mb/s
Maximum bit rate : 30.0 Mb/s
Width : 1 920 pixels
Height : 1 080 pixels
Display aspect ratio : 16:9
Frame rate : 23.976 (24000/1001) FPS
Color space : YUV
Chroma subsampling : 4:2:0
Bit depth : 8 bits
Scan type : Progressive
Bits/(Pixel*Frame) : 0.416
Stream size : 2.89 GiB (84%)
Color range : Limited
Color primaries : BT.709
Transfer characteristics : BT.709
Matrix coefficients : BT.709

Audio #1
ID : 4352 (0x1100)
Menu ID : 1 (0x1)
Format : PCM
Format settings : Big / Signed
Muxing mode : Blu-ray
Codec ID : 128
Duration : 20 min 0 s
Bit rate mode : Constant
Bit rate : 1 536 kb/s
Channel(s) : 2 channels
Channel layout : L R
Sampling rate : 48.0 kHz
Bit depth : 16 bits
Stream size : 220 MiB (6%)

Audio #2
ID : 4353 (0x1101)
Menu ID : 1 (0x1)
Format : PCM
Format settings : Big / Signed
Muxing mode : Blu-ray
Codec ID : 128
Duration : 20 min 0 s
Bit rate mode : Constant
Bit rate : 1 536 kb/s
Channel(s) : 2 channels
Channel layout : L R
Sampling rate : 48.0 kHz
Bit depth : 16 bits
Stream size : 220 MiB (6%)

Text
ID : 4608 (0x1200)
Menu ID : 1 (0x1)
Format : PGS
Codec ID : 144

Ikoku na Retro
異国なレトロ
Экзотическое ретро


Год выпуска: 2015
Жанр: romance, maid, oral, big breast, paizuri, creampie
Серии: ep. 1 of 1
Продолжительность: 26mn
Цензура: Отсутствует

Озвучка: Японская оригинальная
Озвучка: Английская профессиональная (полное дублирование)
Субтитры: Английские встроенные BGS

Режиссер: Oota Hideta
Автор оригинала: Siokonbu
Студия: Studio 1st, PashminaA

Описание: Based on the Koi Maguwai manga by Siokonbu.

anidb

Качество видео: Blu-Ray
Формат видео: BD Video
Видео: AVC, 1920-1080, 16-9, 23.976 fps, 19.5 mbps
Аудио 1: jap, PCM, Stereo, 48.0 KHz, 1536 Kbps
Аудио 2: eng, PCM, Stereo, 48.0 KHz, 1536 Kbps

General
ID : 0 (0x0)
Complete name : 00004.m2ts
Format : BDAV
Format/Info : Blu-ray Video
File size : 4.30 GiB
Duration : 26 min 10 s
Overall bit rate mode : Variable
Overall bit rate : 23.5 Mb/s
Maximum Overall bit rate : 48.0 Mb/s

Video
ID : 4113 (0x1011)
Menu ID : 1 (0x1)
Format : AVC
Format/Info : Advanced Video Codec
Format profile : [email protected]
Format settings : CABAC / 4 Ref Frames
Format settings, CABAC : Yes
Format settings, RefFrames : 4 frames
Codec ID : 27
Duration : 26 min 10 s
Bit rate mode : Variable
Bit rate : 19.5 Mb/s
Maximum bit rate : 30.0 Mb/s
Width : 1 920 pixels
Height : 1 080 pixels
Display aspect ratio : 16:9
Frame rate : 23.976 (24000/1001) FPS
Color space : YUV
Chroma subsampling : 4:2:0
Bit depth : 8 bits
Scan type : Progressive
Bits/(Pixel*Frame) : 0.392
Stream size : 3.56 GiB (83%)
Color range : Limited
Color primaries : BT.709
Transfer characteristics : BT.709
Matrix coefficients : BT.709

Audio #1
ID : 4352 (0x1100)
Menu ID : 1 (0x1)
Format : PCM
Format settings : Big / Signed
Muxing mode : Blu-ray
Codec ID : 128
Duration : 26 min 10 s
Bit rate mode : Constant
Bit rate : 1 536 kb/s
Channel(s) : 2 channels
Channel layout : L R
Sampling rate : 48.0 kHz
Bit depth : 16 bits
Stream size : 288 MiB (7%)

Audio #2
ID : 4353 (0x1101)
Menu ID : 1 (0x1)
Format : PCM
Format settings : Big / Signed
Muxing mode : Blu-ray
Codec ID : 128
Duration : 26 min 10 s
Bit rate mode : Constant
Bit rate : 1 536 kb/s
Channel(s) : 2 channels
Channel layout : L R
Sampling rate : 48.0 kHz
Bit depth : 16 bits
Stream size : 288 MiB (7%)

Text
ID : 4608 (0x1200)
Menu ID : 1 (0x1)
Format : PGS
Codec ID : 144

От Kuronoe – там двд с цензурой, здесь бд без цензуры.

Koi Maguwai
恋まぐわい
Любовь и секс


Год выпуска: 2014
Жанр: werewolf, kitsune, oral, big breast, creampie
Серии: ep. 1 of 1
Продолжительность: 25mn
Цензура: Отсутствует

Озвучка: Японская оригинальная
Озвучка: Английская профессиональная (полное дублирование)
Субтитры: Английские встроенные BGS

Автор оригинала: Siokonbu
Режиссёр: Oota Hideta
Студия: Pashmina Ace, Digital Works

Описание: A mysterious courtesan named Ginko serves the red light district of Yoshibara with her charms. But there is a man she ran away from, years ago... the first human she ever saw, a boy who saved her life. Even though she was an Ayakashi, she had fallen in love with a human. This a story of forbidden love.

Source: H-Moe

anidb

Качество видео: Blu-Ray
Формат видео: BD Video
Видео: AVC, 1920-1080, 16-9, 23.976 fps, 20 mbps
Аудио 1: jap, PCM, Stereo, 48.0 KHz, 1536 Kbps
Аудио 2: eng, PCM, Stereo, 48.0 KHz, 1536 Kbps

General
ID : 0 (0x0)
Complete name : 00005.m2ts
Format : BDAV
Format/Info : Blu-ray Video
File size : 4.20 GiB
Duration : 25 min 0 s
Overall bit rate mode : Variable
Overall bit rate : 24.1 Mb/s
Maximum Overall bit rate : 48.0 Mb/s

Video
ID : 4113 (0x1011)
Menu ID : 1 (0x1)
Format : AVC
Format/Info : Advanced Video Codec
Format profile : [email protected]
Format settings : CABAC / 4 Ref Frames
Format settings, CABAC : Yes
Format settings, RefFrames : 4 frames
Codec ID : 27
Duration : 25 min 0 s
Bit rate mode : Variable
Bit rate : 20.0 Mb/s
Maximum bit rate : 30.0 Mb/s
Width : 1 920 pixels
Height : 1 080 pixels
Display aspect ratio : 16:9
Frame rate : 23.976 (24000/1001) FPS
Color space : YUV
Chroma subsampling : 4:2:0
Bit depth : 8 bits
Scan type : Progressive
Bits/(Pixel*Frame) : 0.403
Stream size : 3.50 GiB (83%)
Color range : Limited
Color primaries : BT.709
Transfer characteristics : BT.709
Matrix coefficients : BT.709

Audio #1
ID : 4352 (0x1100)
Menu ID : 1 (0x1)
Format : PCM
Format settings : Big / Signed
Muxing mode : Blu-ray
Codec ID : 128
Duration : 25 min 0 s
Bit rate mode : Constant
Bit rate : 1 536 kb/s
Channel(s) : 2 channels
Channel layout : L R
Sampling rate : 48.0 kHz
Bit depth : 16 bits
Stream size : 275 MiB (6%)

Audio #2
ID : 4353 (0x1101)
Menu ID : 1 (0x1)
Format : PCM
Format settings : Big / Signed
Muxing mode : Blu-ray
Codec ID : 128
Duration : 25 min 0 s
Bit rate mode : Constant
Bit rate : 1 536 kb/s
Channel(s) : 2 channels
Channel layout : L R
Sampling rate : 48.0 kHz
Bit depth : 16 bits
Stream size : 275 MiB (6%)

Text
ID : 4608 (0x1200)
Menu ID : 1 (0x1)
Format : PGS
Codec ID : 144


Внимание! AdBlock блокирует показ скриншотов, все вопросы к разработчикам )))
Трекер:  [ 16-Май-2020 00:33 ]

  

Скачать .torrent

Размер .torrent файла 74 KB


Размер: 13.77 GB
Хэш (hash) релиза: 9b8cc3b039dbbe97018fb926de6ec43bc357f299

Еще никто не оставлял запись к записи скачать торрент Hentai heaven collection 06: Mou Hasamazu ni wa Irarenai: Hoshi ni Onegai Shitara Konna ni Okkiku Nacchatta! . Будь первым!

!Обратная связь