Скачать через торрент Волки и овцы: бе-е-е-зумное превращение Фильм бесплатно в хорошем качестве torrent

Скачивайте на UnionPeer.org фильмы через торрент без регистрации. Новинки кино в хорошем качестве через торрент. На UnionPeer.org можно скачать через торрент фильмы 2014 и 2015 годов. Самые новые фильмы.

Скачать торрент Волки и овцы: бе-е-е-зумное превращение бесплатно через .torrent фильм мультфильм сериал

Статистика раздачи
Размер:  2.81 GB   |    Зарегистрирован:  2 месяца 24 дня   |    .torrent скачан:  22 раза   |   

Пиры будут получены при скачивании

 

Скачать Волки и овцы: бе-е-е-зумное превращение (2016) BDRip 720p от SuperMin | iTunes через torrent

 
Sprinthost
загрузка...
 
Автор Сообщение

Galfimbul ghost

avatar Galfimbul ghost


Волки и овцы: бе-е-е-зумное превращение /Волки и овцы: бе-е-е-зумное превращение

Жанр: Мультфильм, семейный, комедия, приключения
Режиссер: Максим Волков, Андрей Галат
Роли озвучивали: Александр Петров, Елизавета Боярская, Сергей Безруков, Екатерина Иванчикова, Юрий Гальцев, Андрей Рожков, Татьяна Шитова, Диомид Виноградов, Андрей Бархударов, Дмитрий Филимонов


Любимцу стаи, молодому и беззаботному волку Серому невдомек, что скоро он окажется чужим среди своих друзей. Претендуя на роль вожака стаи и на руку (вернее, лапу) и сердце самой красивой волчицы Бьянки, Серый продолжает дурачиться и устраивать розыгрыши над сородичами. Все переворачивается с ног на голову, когда он решает изменить себя с помощью волшебного зелья. Чудо действительно происходит: Серый превращается в барана! Опасаясь за свою, теперь овечью, шкуру, Серый сбегает от волков и поселяется в деревне овец.
Теперь Серому предстоит не только вернуть доверие возлюбленной и стаи, но и свой прежний облик. Но как это сделать, если у тебя есть всего три дня, да еще рога и копыта?



Страна: Россия
Студия: Кинокомпания CTB, Wizart Animation
Продолжительность: 01:24:47
Перевод: не требуется

Файл
Кодек: H.264
Качество: BDRip 720p
Видео: 1280х536 (2.40:1), 4366 Kbps, 23.976 fps
Звук: Русский (AC-3, 6ch, 384 kbps) iTunes
Субтитры: нет

General
Unique ID : 114000237081959921390858148200350716546 (0x55C3A5A384A5FCEC81689C3D8D839282)
Complete name : F:МУЛЬТЫВОЛКИ И ОВЦЫ1 - Волки и Овцы. Бе-е-е-зумное превращение.mkv
Format : Matroska
Format version : Version 4
File size : 2.81 GiB
Duration : 1 h 24 min
Overall bit rate : 4 752 kb/s
Movie name : Волки и овцы: бе-е-е-зумное превращение (2016) - #LORDKILL#
Encoded date : UTC 2020-05-17 04:47:50
Writing application : mkvmerge v32.0.0 ('Astral Progressions') 64-bit
Writing library : libebml v1.3.7 + libmatroska v1.5.0

Video
ID : 1
Format : AVC
Format/Info : Advanced Video Codec
Format profile : High@L4.1
Format settings : CABAC / 12 Ref Frames
Format settings, CABAC : Yes
Format settings, Reference : 12 frames
Codec ID : V_MPEG4/ISO/AVC
Duration : 1 h 24 min
Bit rate : 4 366 kb/s
Width : 1 280 pixels
Height : 536 pixels
Display aspect ratio : 2.40:1
Frame rate mode : Constant
Frame rate : 23.976 (24000/1001) FPS
Color space : YUV
Chroma subsampling : 4:2:0
Bit depth : 8 bits
Scan type : Progressive
Bits/(Pixel*Frame) : 0.265
Stream size : 2.59 GiB (92%)
Writing library : x264 core 159 r2991 1771b55
Encoding settings : cabac=1 / ref=12 / deblock=1:-2:-2 / analyse=0x3:0x113 / me=umh / subme=10 / psy=1 / psy_rd=1.00:0.20 / mixed_ref=1 / me_range=32 / chroma_me=1 / trellis=2 / 8x8dct=1 / cqm=0 / deadzone=21,11 / fast_pskip=0 / chroma_qp_offset=-3 / threads=12 / lookahead_threads=3 / sliced_threads=0 / nr=0 / decimate=1 / interlaced=0 / bluray_compat=0 / constrained_intra=0 / bframes=10 / b_pyramid=2 / b_adapt=2 / b_bias=0 / direct=1 / weightb=1 / open_gop=0 / weightp=2 / keyint=240 / keyint_min=23 / scenecut=40 / intra_refresh=0 / rc=crf / mbtree=0 / crf=18.0 / qcomp=0.60 / qpmin=0 / qpmax=69 / qpstep=4 / ip_ratio=1.40 / pb_ratio=1.30 / aq=1:1.00
Default : Yes
Forced : No

Audio
ID : 2
Format : AC-3
Format/Info : Audio Coding 3
Commercial name : Dolby Digital
Codec ID : A_AC3
Duration : 1 h 24 min
Bit rate mode : Constant
Bit rate : 384 kb/s
Channel(s) : 6 channels
Channel layout : L R C LFE Ls Rs
Sampling rate : 48.0 kHz
Frame rate : 31.250 FPS (1536 SPF)
Compression mode : Lossy
Stream size : 233 MiB (8%)
Title : iTunes
Language : Russian
Service kind : Complete Main
Default : Yes
Forced : No
Источник http://listRutor.org

Внимание! AdBlock блокирует показ скриншотов, все вопросы к разработчикам )))
Трекер:  [ 17-Май-2020 08:00 ]

  

Скачать .torrent

Размер .torrent файла 14 KB


Размер: 2.81 GB
Хэш (hash) релиза: 6fac6947793814d3819c31ed7620ea11405265ef
Подписка на обновления:

Торренты, похожие на Волки и овцы: бе-е-е-зумное превращение скачать торрент

Форум Название Автор Размер S L Добавлен
3D Мультфильмы ·· Волки и овцы: бе-е-е-зумное превращение в 3Д / Wolves and sheep: BAA-e-e-suminoe transformation 3D (Максим Волков, Андре Галат) [2016, Мультфильм, полнометражный, семейный, комедия, приключения BDremux, 1080p] BD3D Galfimbul ghost 2341116313621.8 GB 0 0 1495899469

18:37

27-Май-17

3D Мультфильмы ·· Волки и овцы: бе-е-е-зумное превращение (Максим Волков, Андрей Галат) [2016, Россия, мультфильм, семейный, комедия, приключения, Blu-ray disc (custom) 1080p] BD3D Galfimbul ghost 2786774220825.95 GB 0 0 1492377846

00:24

17-Апр-17

Мультфильмы до 2016 ·· Волки и овцы: бе-е-е-зумное превращение (Максим Волков, Андрей Галат) [2016, Россия, мультфильм, семейный, комедия, приключения, BDRip 720p] [Английский видеоряд] + Dub Eng Galfimbul ghost 35640009033.32 GB 0 0 1489825743

11:29

18-Мар-17

3D Мультфильмы ·· Волки и овцы: бе-е-е-зумное превращение в 3Д / Sheep & Wolves 3D (Максим Волков, Андрей Галат) [2016, Мультфильм, Семейный, Комедия, Приключения, BDrip, 1080p] OverUnder / Вертикальная стереопара Galfimbul ghost 93937165998.75 GB 0 0 1488104039

13:13

26-Фев-17

3D Мультфильмы ·· Волки и овцы: бе-е-е-зумное превращение в 3Д / 3D (Максим Волков, Андрей Галат) [2016, Мультфильм, Семейный, Комедия, Приключения, BDrip] iTunes, Half OverUnder / Вертикальная анаморфная стереопара Galfimbul ghost 95265398158.87 GB 0 0 1486709805

09:56

10-Фев-17

Мультфильмы до 2016 ·· Волки и овцы: бе-е-е-зумное превращение (Максим Волков, Андрей Галат) [2016, мультфильм, семейный, комедия, WEB-DLRip-AVC] Galfimbul ghost 15648189821.46 GB 0 0 1463655291

13:54

19-Май-16

Мультфильмы до 2016 ·· Волки и овцы: бе-е-е-зумное превращение (Максим Волков, Андрей Галат) [2016, мультфильм, семейный, комедия, WEB-DLRip-AVC] Galfimbul ghost 781934196746 MB 0 0 1463655285

13:54

19-Май-16

Мультфильмы до 2016 ·· Волки и овцы: бе-е-е-зумное превращение (Максим Волков, Андрей Галат) [2016, Россия, Мультипликация, WEB-DL 1080p] Galfimbul ghost 31199565582.91 GB 0 0 1463553863

09:44

18-Май-16

Мультфильмы 2016-2020 (Новинки мультфильмов) ·· Волки и овцы: бе-е-е-зумное превращение (Максим Волков, Андрей Галат) [2016, мультфильм, семейный, комедия, приключения, WEB-DLRip] iTunes Galfimbul ghost 14675107841.37 GB 0 0 1463516122

23:15

17-Май-16

Мультфильмы 2016-2020 (Новинки мультфильмов) ·· Волки и овцы: бе-е-е-зумное превращение (Максим Волков, Андрей Галат) [2016, мультфильм, семейный, комедия, приключения, WEB-DL 720p] iTunes Galfimbul ghost 28003346632.61 GB 0 0 1463516117

23:15

17-Май-16

Мультфильмы 2016-2020 (Новинки мультфильмов) ·· Волки и овцы: бе-е-е-зумное превращение (Максим Волков, Андрей Галат) [2016, мультфильм, семейный, комедия, приключения, CAMRip] Galfimbul ghost 14667018241.37 GB 0 0 1463399082

14:44

16-Май-16

dpd RU

Еще никто не оставлял запись к записи скачать торрент Волки и овцы: бе-е-е-зумное превращение . Будь первым!

!Обратная связь