Скачать через торрент Сержант Стабби: Американский герой Sgt. Stubby: An American Hero Фильм бесплатно в хорошем качестве torrent

Скачивайте на UnionPeer.org фильмы через торрент без регистрации. Новинки кино в хорошем качестве через торрент. На UnionPeer.org можно скачать через торрент фильмы 2014 и 2015 годов. Самые новые фильмы.

Скачать торрент Сержант Стабби: Американский герой Sgt. Stubby: An American Hero бесплатно через .torrent фильм мультфильм сериал

Статистика раздачи
Размер:  745 MB   |    Зарегистрирован:  13 дней   |    .torrent скачан:  3 раза   |   

Пиры будут получены при скачивании

 

Скачать Сержант Стабби: Американский герой / Sgt. Stubby: An American Hero (2018) BDRip-AVC от ExKinoRay | HDrezka Studio через torrent

 
загрузка...
 
Автор Сообщение

Galfimbul ghost

avatar Galfimbul ghost


Название: Сержант Стабби: Американский герой
Оригинальное название: Sgt. Stubby: An American Hero
Год выхода: 2018
Жанр: Мультфильм, приключения, семейный, военный, история
Режиссер: Ричард Ланни
В ролях: Логан Лерман, Хелена Бонем Картер, Жерар Депардьё, Джордан Бек, Джим Фарр, Джейсон Эззель, Гийом Сенту, Кристоф Лемуан, Николас Рулон, Брайан Кук

О фильме:
Правдивая история о собаке-сержанте по кличке Стабби, получившей звание и награды за подвиги на Первой мировой войне. Бездомный голодающий щенок попал в добрые руки молодого солдата и стал членом его полка. Вместе со своей армейской семьёй пёс Стабби отправился на французский фронт, где участвовал в боях, спасал раненых и ловил шпионов.

Страна: Ирландия, Франция
Студия: Fun Academy Media Group
Продолжительность: 01:24:25
Перевод: Профессиональный многоголосый | HDrezka Studio

Файл
Формат: MKV
Качество: BDRip-AVC
Видео: MPEG-4 AVC, 760x410, - 1158 Кбит/с
Аудио: AAC-HE, 2 ch, - 76 Кбит/с
Субтитры: Нет
Общее
Уникальный идентификатор : 10266525136257356686257687451199147854 (0x7B942C4FFD86A8D493B4D4665450F4E)
Полное имя : D:MOVIESSerzhant.Stabbi.2018.BDRip.AVC.ExKinoRay.mkv
Формат : Matroska
Версия формата : Version 4
Размер файла : 745 Мбайт
Продолжительность : 1 ч. 24 м.
Общий поток : 1 235 Кбит/сек
Дата кодирования : UTC 2020-05-17 04:48:51
Программа кодирования : mkvmerge v45.0.0 ('Heaven in Pennies') 64-bit
Библиотека кодирования : libebml v1.3.10 + libmatroska v1.5.2

Видео
Идентификатор : 1
Формат : AVC
Формат/Информация : Advanced Video Codec
Профиль формата : High@L4.1
Настройки формата : CABAC / 11 Ref Frames
Параметр CABAC формата : Да
Параметр RefFrames формата : 11 кадров
Идентификатор кодека : V_MPEG4/ISO/AVC
Продолжительность : 1 ч. 24 м.
Битрейт : 1 158 Кбит/сек
Ширина : 760 пикселей
Высота : 410 пикселей
Соотношение сторон : 1,85:1
Режим частоты кадров : Постоянный
Частота кадров : 23,976 (24000/1001) кадра/сек
Цветовое пространство : YUV
Субдискретизация насыщенности : 4:2:0
Битовая глубина : 8 бит
Тип развёртки : Прогрессивная
Бит/(Пиксели*Кадры) : 0.155
Размер потока : 699 Мбайт (94%)
Библиотека кодирования : x264 core 159 r2991 1771b55
Настройки программы : cabac=1 / ref=11 / deblock=1:-3:-3 / analyse=0x3:0x133 / me=umh / subme=10 / psy=1 / psy_rd=1.05:0.10 / mixed_ref=1 / me_range=32 / chroma_me=1 / trellis=2 / 8x8dct=1 / cqm=0 / deadzone=21,11 / fast_pskip=0 / chroma_qp_offset=-3 / threads=6 / lookahead_threads=1 / sliced_threads=0 / nr=0 / decimate=0 / interlaced=0 / bluray_compat=0 / constrained_intra=0 / bframes=12 / b_pyramid=2 / b_adapt=2 / b_bias=0 / direct=3 / weightb=1 / open_gop=0 / weightp=2 / keyint=240 / keyint_min=23 / scenecut=40 / intra_refresh=0 / rc_lookahead=40 / rc=2pass / mbtree=1 / bitrate=1158 / ratetol=1.0 / qcomp=0.60 / qpmin=0 / qpmax=69 / qpstep=4 / cplxblur=20.0 / qblur=0.5 / ip_ratio=1.40 / aq=3:1.00
Default : Да
Forced : Нет
Цветовой диапазон : Limited
Основные цвета : BT.709
Характеристики трансфера : BT.709
Коэффициенты матрицы : BT.709

Аудио
Идентификатор : 2
Формат : AAC LC SBR
Формат/Информация : Advanced Audio Codec Low Complexity with Spectral Band Replication
Коммерческое название : HE-AAC
Настройки формата : Explicit
Идентификатор кодека : A_AAC-2
Продолжительность : 1 ч. 23 м.
Битрейт : 76,0 Кбит/сек
Каналы : 2 канала
Channel layout : L R
Частота : 48,0 КГц
Частота кадров : 23,438 кадра/сек (2048 SPF)
Метод сжатия : С потерями
Задержка видео : 31 мс.
Размер потока : 45,6 Мбайт (6%)
Язык : Russian
Default : Да
Forced : Нет

Меню
00:00:00.000 : en:Life On The Streets
00:03:45.308 : en:Stubby Meets Conroy
00:07:30.951 : en:Basic Training
00:10:39.514 : en:The Yankee Division
00:12:15.109 : en:Gas Mask Training
00:14:34.207 : en:Schroeder's Story
00:15:55.371 : en:Conroy Leaves Stubby
00:18:49.170 : en:Stubby The Stowaway
00:20:47.580 : en:Searching For Conroy
00:22:40.192 : en:Stubby's Dog Tags
00:24:16.163 : en:To The Trenches
00:26:37.096 : en:Welcome Yankee Division
00:28:19.448 : en:Gaston Baptiste
00:33:44.356 : en:Gas Attack
00:39:48.803 : en:A Taste Of Home
00:44:43.347 : en:No Man's Land
00:46:31.664 : en:Three Musketeers
00:48:41.293 : en:Seicheprey
00:54:26.430 : en:Gaston Says Goodbye
00:57:13.597 : en:Race Against Time
01:01:38.278 : en:Stubby's Return
01:03:10.495 : en:A Trip To Paris
01:05:59.456 : en:Stubby Catches A Spy
01:07:13.446 : en:Sgt. Stubby
01:08:19.596 : en:The New Beasts Of War
01:09:34.837 : en:The War Is Over!
01:10:19.966 : en:Comrades In Arms
01:11:23.821 : en:11 November 1918
01:15:26.480 : en:Coming Home
01:17:51.000 : en:Credits
Источник http://listRutor.org

Трекер:  [ 17-Май-2020 08:20 ]

  

Скачать .torrent

Размер .torrent файла 15 KB


Размер: 745 MB
Хэш (hash) релиза: ec1873b5eb5de1185f53bbfa74ba8f0bd9c6e4c9
Подписка на обновления:

Еще никто не оставлял запись к записи скачать торрент Сержант Стабби: Американский герой Sgt. Stubby: An American Hero . Будь первым!

!Обратная связь