Скачать порно через торрент Hentai heaven collection 09:Boku Dake no Hentai Kanojo The Animation+mottShe`s a Pervert and She`s All Mine! UnionPeer.org бесплатно онлайн HD качество

Скачать новое порно 2015, 2014 новинки через торрент UnionPeer.org

Порно торрент бесплатно ЮнионПир.орг

Статистика раздачи
Размер:  9.72 GB   |    Зарегистрирован:  3 года 9 месяцев   |    .torrent скачан:  484 раза   |   

Пиры будут получены при скачивании

   
 
Автор Сообщение

Galfimbul

avatar Galfimbul


Boku Dake no Hentai Kanojo The Animation
Boku Dake no Hentai Kanojo Motto The Animation
僕だけのヘンタイカノジョ THE ANIMATION
僕だけのヘンタイカノジョ もっと THE ANIMATION
She`s a Pervert and She`s All Mine!
She`s a Pervert and She`s All Mine! Part 2
Моя подружка такая извращенка


Год выпуска: 2017
Жанр: romance, exhibitionism, pissing, school, masturbation, toys, oral, outdoor, creampie
Серии: ep. 1 of 1 + ep. 1 of 1
Продолжительность: 17mn + 17mn
Цензура: Отсутствует

Озвучка: Японская оригинальная
Озвучка: Английская профессиональная (полное дублирование)
Субтитры: Английские встроенные BGS

Автор оригинала: Panna cotta, Shouno Kotarou
Режиссёр: Oota Hideta
Студия: Studio 1st, Bootleg, MS Pictures

Описание: Школьница любила писать на улице и её спалил одноклассник. Медиташи-медиташи.

anidb
anidb

Качество видео: Blu-Ray
Формат видео: BD Video
Видео: AVC, 1920-1080, 16-9, 23.976 fps, 19.6-23.5 mbps
Аудио 1: jap, PCM, Stereo, 48.0 KHz, 1536 Kbps
Аудио 2: eng, PCM, Stereo, 48.0 KHz, 1536 Kbps

General
ID : 0 (0x0)
Complete name : 00000.m2ts
Format : BDAV
Format/Info : Blu-ray Video
File size : 2.91 GiB
Duration : 17 min 35 s
Overall bit rate mode : Variable
Overall bit rate : 23.7 Mb/s
Maximum Overall bit rate : 48.0 Mb/s

Video
ID : 4113 (0x1011)
Menu ID : 1 (0x1)
Format : AVC
Format/Info : Advanced Video Codec
Format profile : [email protected]
Format settings : CABAC / 4 Ref Frames
Format settings, CABAC : Yes
Format settings, Reference frames : 4 frames
Codec ID : 27
Duration : 17 min 35 s
Bit rate mode : Variable
Bit rate : 19.6 Mb/s
Maximum bit rate : 30.0 Mb/s
Width : 1 920 pixels
Height : 1 080 pixels
Display aspect ratio : 16:9
Frame rate : 23.976 (24000/1001) FPS
Color space : YUV
Chroma subsampling : 4:2:0
Bit depth : 8 bits
Scan type : Progressive
Bits/(Pixel*Frame) : 0.395
Stream size : 2.41 GiB (83%)
Color range : Limited
Color primaries : BT.709
Transfer characteristics : BT.709
Matrix coefficients : BT.709

Audio #1
ID : 4352 (0x1100)
Menu ID : 1 (0x1)
Format : PCM
Format settings : Big / Signed
Muxing mode : Blu-ray
Codec ID : 128
Duration : 17 min 35 s
Bit rate mode : Constant
Bit rate : 1 536 kb/s
Channel(s) : 2 channels
Channel layout : L R
Sampling rate : 48.0 kHz
Bit depth : 16 bits
Stream size : 193 MiB (6%)

Audio #2
ID : 4353 (0x1101)
Menu ID : 1 (0x1)
Format : PCM
Format settings : Big / Signed
Muxing mode : Blu-ray
Codec ID : 128
Duration : 17 min 35 s
Bit rate mode : Constant
Bit rate : 1 536 kb/s
Channel(s) : 2 channels
Channel layout : L R
Sampling rate : 48.0 kHz
Bit depth : 16 bits
Stream size : 193 MiB (6%)

Text
ID : 4608 (0x1200)
Menu ID : 1 (0x1)
Format : PGS
Codec ID : 144
Duration : 17 min 33 s

Swamp Stamp Anime Edition
Tramp Stamp: Anime edition


Год выпуска: 2017
Жанр: drama, virgin, oral, prostitution, interracial, creampie
Серии: ep. 1 of 1
Продолжительность: 16mn
Цензура: Отсутствует

Озвучка: Японская оригинальная
Озвучка: Английская профессиональная (полное дублирование)
Субтитры: Английские встроенные BGS

Автор оригинала: Midori no Ruupe
Режиссёр: Itou Fumio
Студия: Studio 9 Maiami, AniMan, MS Pictures

Описание: Короче, у девушки течка началась и решила отдатся однокласснику. А дальше как в песне... Меня засосала опасная трясина

anidb

Качество видео: Blu-Ray
Формат видео: BD Video
Видео: AVC, 1920-1080, 16-9, 23.976 fps, 19.3 mbps
Аудио 1: jap, PCM, Stereo, 48.0 KHz, 1536 Kbps
Аудио 2: eng, PCM, Stereo, 48.0 KHz, 1536 Kbps

General
ID : 0 (0x0)
Complete name : 00002.m2ts
Format : BDAV
Format/Info : Blu-ray Video
File size : 2.65 GiB
Duration : 16 min 16 s
Overall bit rate mode : Variable
Overall bit rate : 23.4 Mb/s
Maximum Overall bit rate : 48.0 Mb/s

Video
ID : 4113 (0x1011)
Menu ID : 1 (0x1)
Format : AVC
Format/Info : Advanced Video Codec
Format profile : [email protected]
Format settings : CABAC / 4 Ref Frames
Format settings, CABAC : Yes
Format settings, Reference frames : 4 frames
Format settings, GOP : M=3, N=23
Codec ID : 27
Duration : 16 min 16 s
Bit rate mode : Variable
Bit rate : 19.3 Mb/s
Maximum bit rate : 30.0 Mb/s
Width : 1 920 pixels
Height : 1 080 pixels
Display aspect ratio : 16:9
Frame rate : 23.976 (24000/1001) FPS
Color space : YUV
Chroma subsampling : 4:2:0
Bit depth : 8 bits
Scan type : Progressive
Bits/(Pixel*Frame) : 0.389
Stream size : 2.20 GiB (83%)
Color range : Limited
Color primaries : BT.709
Transfer characteristics : BT.709
Matrix coefficients : BT.709

Audio #1
ID : 4352 (0x1100)
Menu ID : 1 (0x1)
Format : PCM
Format settings : Big / Signed
Muxing mode : Blu-ray
Codec ID : 128
Duration : 16 min 16 s
Bit rate mode : Constant
Bit rate : 1 536 kb/s
Channel(s) : 2 channels
Channel layout : L R
Sampling rate : 48.0 kHz
Bit depth : 16 bits
Stream size : 179 MiB (7%)

Audio #2
ID : 4353 (0x1101)
Menu ID : 1 (0x1)
Format : PCM
Format settings : Big / Signed
Muxing mode : Blu-ray
Codec ID : 128
Duration : 16 min 16 s
Bit rate mode : Constant
Bit rate : 1 536 kb/s
Channel(s) : 2 channels
Channel layout : L R
Sampling rate : 48.0 kHz
Bit depth : 16 bits
Stream size : 179 MiB (7%)

Text
ID : 4608 (0x1200)
Menu ID : 1 (0x1)
Format : PGS
Codec ID : 144


Внимание! AdBlock блокирует показ скриншотов, все вопросы к разработчикам )))
Трекер:  [ 18-Май-2020 00:13 ]

  

Скачать .torrent

Размер .torrent файла 52 KB


Размер: 9.72 GB
Хэш (hash) релиза: 6c18e9e86e71a81d7b6b4878f6852d48cdbb8254

Еще никто не оставлял запись к записи скачать торрент Hentai heaven collection 09:Boku Dake no Hentai Kanojo The Animation+mottShe`s a Pervert and She`s All Mine! . Будь первым!

!Обратная связь