Скачать через торрент Дитя крови Blood Child Фильм бесплатно в хорошем качестве torrent

Скачивайте на UnionPeer.org фильмы через торрент без регистрации. Новинки кино в хорошем качестве через торрент. На UnionPeer.org можно скачать через торрент фильмы 2014 и 2015 годов. Самые новые фильмы.

Скачать торрент Дитя крови Blood Child бесплатно через .torrent фильм мультфильм сериал

Статистика раздачи
Размер:  6.9 GB   |    Зарегистрирован:  12 дней   |    .torrent скачан:  38 раз   |   
Раздают:  2  
 

Скачать Дитя крови / Blood Child (2017) BDRip 1080p от ExKinoRay | P через torrent

 
загрузка...
 
Автор Сообщение

Galfimbul ghost

avatar Galfimbul ghost


Дитя крови /Blood Child

Год выхода: 2017
Жанр: Ужасы, фэнтези, триллер
Режиссер: Дженнифер Филлипс
В ролях: Аликс Мелоне, Синтия Ли МакКуарри, Байден-Холл, Лиза Ковак, Шарлотта Кэттелл, Коко Уига, Тара Читарони, Джон Хаслетт Мерфи, Стив Касан, Лия Радда

О фильме:
Супруги Билл и Эшли ДиАнджело живут в Сингапуре, где Билл работает представителем крупной компании. Пара ждёт ребёнка и жизнь кажется совершенно безоблачной. Но когда у Эшли случается выкидыш, она теряет душевный покой и заставляет мужа вернуться в США. Там Эшли узнаёт, что их многолетняя горничная, индонезийка Сити, знакома с чародеем, который проводит колдовские обряды, и просит вернуть к жизни умершего ребёнка. Однако, девушка не хочет понять, что цена такого заклятья очень высока и отныне над её семьёй нависла смертельная опасность.



Страна: Канада, США
Студия: Castles in the Air Pictures, Laughing Cat Productions
Продолжительность: 01:32:50
Перевод: Профессиональный многоголосый

Файл
Кодек: MPEG-4 AVC
Качество: BDRip 1080p
Видео: MPEG-4 AVC, 9400 Кбит/с, 1912x812, 23.976 кадр/с
Звук: Русский (AC3, 6 ch, 384 Кбит/с), английский (AC3, 6 ch, 640 Кбит/c)
Субтитры: Английские

Реклама, любого вида, отсутствует.


General
Complete name : Blood.Child.2017.BDRip.(1080p).ExKinoRay.mkv
Format : Matroska
Format version : Version 2
File size : 6.90 GiB
Duration : 1 h 32 min
Overall bit rate : 10.6 Mb/s
Encoded date : UTC 2020-05-18 19:03:34
Writing application : mkvmerge v5.8.0 ('No Sleep / Pillow') built on Sep 2 2012 15:37:04
Writing library : libebml v1.2.3 + libmatroska v1.3.0

Video
ID : 1
Format : AVC
Format/Info : Advanced Video Codec
Format profile : High@L4.1
Format settings : CABAC / 5 Ref Frames
Format settings, CABAC : Yes
Format settings, Reference : 5 frames
Codec ID : V_MPEG4/ISO/AVC
Duration : 1 h 32 min
Bit rate : 9 400 kb/s
Width : 1 912 pixels
Height : 812 pixels
Display aspect ratio : 2.35:1
Frame rate mode : Constant
Frame rate : 23.976 (24000/1001) FPS
Color space : YUV
Chroma subsampling : 4:2:0
Bit depth : 8 bits
Scan type : Progressive
Bits/(Pixel*Frame) : 0.253
Stream size : 6.10 GiB (88%)
Writing library : x264 core 157 r2935 545de2f
Encoding settings : cabac=1 / ref=5 / deblock=1:-3:-3 / analyse=0x3:0x133 / me=umh / subme=10 / psy=1 / psy_rd=1.00:0.00 / mixed_ref=1 / me_range=32 / chroma_me=1 / trellis=2 / 8x8dct=1 / cqm=0 / deadzone=21,11 / fast_pskip=0 / chroma_qp_offset=-2 / threads=12 / lookahead_threads=3 / sliced_threads=0 / nr=0 / decimate=0 / interlaced=0 / bluray_compat=0 / constrained_intra=0 / bframes=16 / b_pyramid=2 / b_adapt=2 / b_bias=0 / direct=3 / weightb=1 / open_gop=0 / weightp=2 / keyint=240 / keyint_min=24 / scenecut=40 / intra_refresh=0 / rc_lookahead=60 / rc=crf / mbtree=0 / crf=15.0 / qcomp=0.60 / qpmin=0 / qpmax=69 / qpstep=4 / vbv_maxrate=62500 / vbv_bufsize=78125 / crf_max=0.0 / nal_hrd=none / filler=0 / ip_ratio=1.30 / pb_ratio=1.20 / aq=2:1.00
Language : English
Default : Yes
Forced : No
Color range : Limited
Color primaries : BT.709
Transfer characteristics : BT.709
Matrix coefficients : BT.709

Audio #1
ID : 2
Format : AC-3
Format/Info : Audio Coding 3
Commercial name : Dolby Digital
Codec ID : A_AC3
Duration : 1 h 32 min
Bit rate mode : Constant
Bit rate : 384 kb/s
Channel(s) : 6 channels
Channel layout : L R C LFE Ls Rs
Sampling rate : 48.0 kHz
Frame rate : 31.250 FPS (1536 SPF)
Compression mode : Lossy
Stream size : 255 MiB (4%)
Language : Russian
Service kind : Complete Main
Default : Yes
Forced : No

Audio #2
ID : 3
Format : AC-3
Format/Info : Audio Coding 3
Commercial name : Dolby Digital
Codec ID : A_AC3
Duration : 1 h 32 min
Bit rate mode : Constant
Bit rate : 640 kb/s
Channel(s) : 6 channels
Channel layout : L R C LFE Ls Rs
Sampling rate : 48.0 kHz
Frame rate : 31.250 FPS (1536 SPF)
Compression mode : Lossy
Stream size : 425 MiB (6%)
Language : English
Service kind : Complete Main
Default : No
Forced : No

Text
ID : 4
Format : UTF-8
Codec ID : S_TEXT/UTF8
Codec ID/Info : UTF-8 Plain Text
Language : English
Default : No
Forced : No

Menu
00:00:00.000 : :Chapter 1
00:11:52.170 : :Chapter 2
00:25:14.054 : :Chapter 3
00:37:06.224 : :Chapter 4
00:49:24.462 : :Chapter 5
01:01:09.332 : :Chapter 6
01:12:59.375 : :Chapter 7
01:24:11.922 : :Chapter 8
Источник http://listRutor.org

Трекер:  [ 19-Май-2020 00:10 ]

  

Скачать .torrent

Размер .torrent файла 35 KB


Размер: 6.9 GB
Хэш (hash) релиза: a9c62b3acbb93a92dbd22a8d00f6f52e67f7a39e
Подписка на обновления:

Торренты, похожие на Дитя крови Blood Child скачать торрент

Форум Название Автор Размер S L Добавлен
Зарубежные фильмы 2016-2019 (Новинки зарубежного кино) ·%· Дитя крови / Blood Child (2017) BDRip от ExKinoRay | P Galfimbul ghost 14567014401.36 GB 1 0 1589840408

01:20

19-Май-20

Еще никто не оставлял запись к записи скачать торрент Дитя крови Blood Child . Будь первым!

!Обратная связь