Скачать через торрент Тёмное наследие Inheritance Фильм бесплатно в хорошем качестве torrent

Скачивайте на UnionPeer.org фильмы через торрент без регистрации. Новинки кино в хорошем качестве через торрент. На UnionPeer.org можно скачать через торрент фильмы 2014 и 2015 годов. Самые новые фильмы.

Скачать торрент Тёмное наследие Inheritance бесплатно через .torrent фильм мультфильм сериал

Статистика раздачи
Размер:  3.48 GB   |    Зарегистрирован:  12 дней   |    .torrent скачан:  152 раза   |   
Раздают:  7  
 

Скачать Тёмное наследие / Inheritance (2020) WEB-DL 720p | iTunes через torrent

 
загрузка...
 
Автор Сообщение

Galfimbul ghost

avatar Galfimbul ghost


Тёмное наследие / Inheritance

Год выхода: 2020
Жанр: Триллер, драма, детектив
Режиссер: Вон Стайн
В ролях: Лили Коллинз, Саймон Пегг, Конни Нильсен, Чейс Кроуфорд, Марке Ричардсон II, Майкл Бич, Крис Гэнн, Хосе Херрера, Кристина ДеРоса, Харрисон Стоун, Ребекка Адамс, Джим И Чандлер, Кэти Колэуэй

О фильме: Богатый и влиятельный отец семейства внезапно умирает. Его жена и дочь начинают разбираться в оставленном им наследстве. Погружаясь в прошлое отца, девушка узнает о завещании, оставленном для нее одной. Однако она не подозревает, что скоро столкнется с правдой, которая станет угрозой для всей её семьи.



Страна: США
Студия: Highland Film Group, Ingenious Media, Southpaw Entertainment
Продолжительность: 01:50:59
Перевод: Дублированный | iTunes

Файл
Качество: WEB-DL 720p
Контейнер: MKV
Видео: MPEG-4 AVC, 1280x536 (2.40:1), 4098 kbps, 24.000 fps
Аудио: Russian: АС3, 6 ch, 48 kHz, 384 kbps - DUB, iTunes
Субтитры: Русские (Full)
General
Unique ID : 95379521513638362966025453251832926314 (0x47C16D7AE48A0FFBEEF9440DD979506A)
Complete name : Inheritance.2020.720p.WEB-DL.Rus.TeamHD.mkv
Format : Matroska
Format version : Version 4
File size : 3.48 GiB
Duration : 1h 51mn
Overall bit rate : 4 484 Kbps
Encoded date : UTC 2020-05-18 18:39:32
Writing application : mkvmerge v43.0.0 ('The Quartermaster') 64-bit
Writing library : libebml v1.3.10 + libmatroska v1.5.2
Cover : Yes
Attachments : cover.jpg

Video
ID : 1
Format : AVC
Format/Info : Advanced Video Codec
Format profile : Main@L3.1
Format settings : 2 Ref Frames
Format settings, CABAC : No
Format settings, ReFrames : 2 frames
Codec ID : V_MPEG4/ISO/AVC
Duration : 1h 51mn
Bit rate : 4 098 Kbps
Width : 1 280 pixels
Height : 536 pixels
Display aspect ratio : 2.40:1
Frame rate mode : Constant
Frame rate : 24.000 fps
Color space : YUV
Chroma subsampling : 4:2:0
Bit depth : 8 bits
Scan type : Progressive
Bits/(Pixel*Frame) : 0.249
Stream size : 3.18 GiB (91%)
Title : Main Program
Language : English
Default : Yes
Forced : No
Color range : Limited
Color primaries : BT.709
Transfer characteristics : BT.709
Matrix coefficients : BT.709

Audio
ID : 2
Format : AC-3
Format/Info : Audio Coding 3
Commercial name : Dolby Digital
Codec ID : A_AC3
Duration : 1h 51mn
Bit rate mode : Constant
Bit rate : 384 Kbps
Channel(s) : 6 channels
Channel layout : L R C LFE Ls Rs
Sampling rate : 48.0 KHz
Frame rate : 31.250 fps (1536 SPF)
Compression mode : Lossy
Stream size : 305 MiB (9%)
Title : Russian DUB from iTunes Russia DD 5.1
Language : Russian
Service kind : Complete Main
Default : Yes
Forced : No

Text
ID : 3
Format : UTF-8
Codec ID : S_TEXT/UTF8
Codec ID/Info : UTF-8 Plain Text
Duration : 1h 46mn
Bit rate : 175 bps
Count of elements : 1240
Stream size : 137 KiB (0%)
Title : Russian Subtitle
Language : Russian
Default : No
Forced : No

Menu
00:00:00.000 : en:Глава 1
00:04:04.125 : en:Глава 2
00:11:31.916 : en:Глава 3
00:19:44.832 : en:Глава 4
00:29:36.290 : en:Глава 5
00:42:51.081 : en:Глава 6
00:51:04.247 : en:Глава 7
00:59:14.288 : en:Глава 8
01:09:47.746 : en:Глава 9
01:16:19.204 : en:Глава 10
01:25:44.287 : en:Глава 11
01:31:30.828 : en:Глава 12
Источник http://listRutor.org

Трекер:  [ 19-Май-2020 00:10 ]

  

Скачать .torrent

Размер .torrent файла 18 KB


Размер: 3.48 GB
Хэш (hash) релиза: 3baf0163eb55613e4f556853f31edb067392a907
Подписка на обновления:

Торренты, похожие на Тёмное наследие Inheritance скачать торрент

Форум Название Автор Размер S L Добавлен
Зарубежные фильмы 2016-2019 (Новинки зарубежного кино) ·%· Темное наследие / Inheritance (2019) WEB-DLRip от MegaPeer | iTunes Galfimbul ghost 15546081281.45 GB 3 0 1589829619

22:20

18-Май-20

Зарубежные фильмы 2016-2019 (Новинки зарубежного кино) ·%· Тёмное наследие / Inheritance (2020) WEB-DL 1080p | iTunes Galfimbul ghost 41747664823.89 GB 3 0 1589828445

22:00

18-Май-20

Еще никто не оставлял запись к записи скачать торрент Тёмное наследие Inheritance . Будь первым!

!Обратная связь