Скачать через торрент Джона Хекс Jonah Hex Фильм бесплатно в хорошем качестве torrent

Скачивайте на UnionPeer.org фильмы через торрент без регистрации. Новинки кино в хорошем качестве через торрент. На UnionPeer.org можно скачать через торрент фильмы 2014 и 2015 годов. Самые новые фильмы.

Скачать торрент Джона Хекс Jonah Hex бесплатно через .torrent фильм мультфильм сериал

Статистика раздачи
Размер:  4.15 GB   |    Зарегистрирован:  1 месяц 5 дней   |    .torrent скачан:  134 раза   |   
Раздают:  4  
 

Скачать Джона Хекс / Jonah Hex (2010) BDRip-HEVC 1080p | P через torrent

 
Timeweb Many GEOs Sprinthost
загрузка...
 
Автор Сообщение

Galfimbul ghost

avatar Galfimbul ghost


Джона Хекс /Jonah Hex

Год выхода: 2010
Жанр: фэнтези, боевик, триллер, драма, вестерн
Режиссер: Джимми Хейуорд
В ролях: Джош Бролин, Джон Малкович, Меган Фокс, Майкл Фассбендер, Уилл Арнетт, Айдан Куинн, Уэс Бентли, Майкл Шеннон, Джон Галлахер мл., Том Вопат

О фильме: Действие происходит в 1876 году. Джона Хекс — странник и наёмный убийца, последний, к кому обращаются, чтобы поймать кого-то из людей или нечто нечеловеческое… Сторонясь людей, герой, тем не менее, поддерживает связь с Лейлой, работницей борделя. По заданию военных он должен будет выследить и поймать Квентина Тернбалла…



Страна: США
Студия: Warner Bros.
Продолжительность: 01:21:30
Перевод: профессиональный многоголосый

Качество: BDRip-HEVC 1080p
Кодек: HEVC (x265)
Видео: 1920x800 (2.40:1), 6015 Кбит/сек, HEVC (Main10@L.4.1@High) 10 бит
Звук:
Аудио1: AC3, 6 ch, 640 Kbps - русский Многоголосый (BD CEE)
Аудио2: AC3, 6 ch, 640 Kbps - english Original
Субтитры: Русские форсированные и полные (SRT), English full (SDH)
Навигация по главам: Есть
x265 [info]: frame I: 497, Avg QP:18.09 kb/s: 13885.64
x265 [info]: frame P: 21729, Avg QP:19.70 kb/s: 10548.49
x265 [info]: frame B: 94977, Avg QP:21.46 kb/s: 4935.33
x265 [info]: Weighted P-Frames: Y:12.6% UV:10.3%
x265 [info]: Weighted B-Frames: Y:14.6% UV:10.9%
x265 [info]: consecutive B-frames: 5.3% 5.1% 6.6% 32.4% 8.2% 19.0% 5.1% 9.1% 1.8% 3.6% 1.1% 2.0% 0.4% 0.4%
x265 [info]: encoded 117203 frames in 110918.10s (1.06 fps), 6013.94 kb/s, Avg QP:21.12
Формат : Matroska
Версия формата : Version 4
Размер файла : 4,15 Гбайт
Продолжительность : 1 ч. 21 м.
Общий поток : 7 294 Кбит/сек
Название фильма : Джона.Хекс.Jonah.Hex.2010.BDRip-HEVC.1080p
Дата кодирования : UTC 2020-06-03 17:20:34
Программа кодирования : mkvmerge v47.0.0 ('Black Flag') 64-bit
Библиотека кодирования : libebml v1.3.10 + libmatroska v1.5.2

Видео
Идентификатор : 1
Формат : HEVC
Формат/Информация : High Efficiency Video Coding
Профиль формата : Main 10@L4.1@High
Идентификатор кодека : V_MPEGH/ISO/HEVC
Продолжительность : 1 ч. 21 м.
Битрейт : 6 015 Кбит/сек
Ширина : 1 920 пикселей
Высота : 800 пикселей
Соотношение сторон : 2,40:1
Режим частоты кадров : Постоянный
Частота кадров : 23,976 (24000/1001) кадра/сек
Цветовое пространство : YUV
Субдискретизация насыщенности : 4:2:0
Битовая глубина : 10 бит
Бит/(Пиксели*Кадры) : 0.163
Размер потока : 3,42 Гбайт (82%)
Заголовок : Jonah Hex / Rip by OldGamer
Библиотека кодирования : x265 3.3+4-g85d84b2af:[Windows][MSVC 1925][64 bit] 10bit
Настройки программы : cpuid=1111039 / frame-threads=3 / numa-pools=12 / wpp / no-pmode / no-pme / no-psnr / no-ssim / log-level=2 / input-csp=1 / input-res=1920x800 / interlace=0 / total-frames=117203 / level-idc=41 / high-tier=1 / uhd-bd=0 / ref=5 / no-allow-non-conformance / no-repeat-headers / annexb / no-aud / no-hrd / info / hash=0 / no-temporal-layers / open-gop / min-keyint=23 / keyint=240 / gop-lookahead=0 / bframes=13 / b-adapt=2 / b-pyramid / bframe-bias=0 / rc-lookahead=40 / lookahead-slices=0 / scenecut=40 / hist-scenecut=0 / radl=0 / no-splice / no-intra-refresh / ctu=64 / min-cu-size=8 / rect / amp / max-tu-size=32 / tu-inter-depth=4 / tu-intra-depth=4 / limit-tu=1 / rdoq-level=2 / dynamic-rd=0.00 / no-ssim-rd / signhide / no-tskip / nr-intra=0 / nr-inter=0 / no-constrained-intra / no-strong-intra-smoothing / max-merge=5 / limit-refs=3 / no-limit-modes / me=3 / subme=7 / merange=57 / temporal-mvp / no-frame-dup / no-hme / weightp / weightb / no-analyze-src-pics / deblock=-3:-3 / no-sao / no-sao-non-deblock / rd=6 / selective-sao=0 / no-early-skip / rskip / no-fast-intra / no-tskip-fast / no-cu-lossless / b-intra / no-splitrd-skip / rdpenalty=0 / psy-rd=2.00 / psy-rdoq=1.00 / no-rd-refine / no-lossless / cbqpoffs=0 / crqpoffs=0 / rc=crf / crf=19.0 / qcomp=0.60 / qpstep=4 / stats-write=0 / stats-read=0 / vbv-maxrate=50000 / vbv-bufsize=50000 / vbv-init=0.9 / crf-max=0.0 / crf-min=0.0 / ipratio=1.40 / pbratio=1.30 / aq-mode=4 / aq-strength=0.70 / no-cutree / zone-count=1 / zones: / start-frame=107472 / end-frame=117191 / qp=36 / no-strict-cbr / qg-size=32 / no-rc-grain / qpmax=69 / qpmin=0 / no-const-vbv / sar=1 / overscan=0 / videoformat=5 / range=0 / colorprim=2 / transfer=2 / colormatrix=2 / chromaloc=0 / display-window=0 / cll=0,0 / min-luma=0 / max-luma=1023 / log2-max-poc-lsb=8 / vui-timing-info / vui-hrd-info / slices=1 / no-opt-qp-pps / no-opt-ref-list-length-pps / no-multi-pass-opt-rps / scenecut-bias=0.00 / hist-threshold=0.01 / no-opt-cu-delta-qp / no-aq-motion / no-hdr10 / no-hdr10-opt / no-dhdr10-opt / no-idr-recovery-sei / analysis-reuse-level=0 / analysis-save-reuse-level=0 / analysis-load-reuse-level=0 / scale-factor=0 / refine-intra=0 / refine-inter=0 / refine-mv=1 / refine-ctu-distortion=0 / no-limit-sao / ctu-info=0 / no-lowpass-dct / refine-analysis-type=0 / copy-pic=1 / max-ausize-factor=1.0 / no-dynamic-refine / no-single-sei / no-hevc-aq / no-svt / no-field / qp-adaptation-range=1.00 / no-scenecut-aware-qpconformance-window-offsets / right=0 / bottom=0
Язык : English
Default : Да
Forced : Нет

Аудио #1
Идентификатор : 2
Формат : AC-3
Формат/Информация : Audio Coding 3
Коммерческое название : Dolby Digital
Идентификатор кодека : A_AC3
Продолжительность : 1 ч. 21 м.
Вид битрейта : Постоянный
Битрейт : 640 Кбит/сек
Каналы : 6 каналов
Channel layout : L R C LFE Ls Rs
Частота : 48,0 КГц
Частота кадров : 31,250 кадров/сек (1536 SPF)
Метод сжатия : С потерями
Размер потока : 373 Мбайт (9%)
Заголовок : MVO (BD)
Язык : Russian
Service kind : Complete Main
Default : Да
Forced : Нет

Аудио #2
Идентификатор : 3
Формат : AC-3
Формат/Информация : Audio Coding 3
Коммерческое название : Dolby Digital
Идентификатор кодека : A_AC3
Продолжительность : 1 ч. 21 м.
Вид битрейта : Постоянный
Битрейт : 640 Кбит/сек
Каналы : 6 каналов
Channel layout : L R C LFE Ls Rs
Частота : 48,0 КГц
Частота кадров : 31,250 кадров/сек (1536 SPF)
Метод сжатия : С потерями
Размер потока : 373 Мбайт (9%)
Язык : English
Service kind : Complete Main
Default : Нет
Forced : Нет

Текст #1
Идентификатор : 4
Формат : UTF-8
Идентификатор кодека : S_TEXT/UTF8
Идентификатор кодека/Информация : UTF-8 Plain Text
Продолжительность : 1 ч. 8 м.
Битрейт : 0 бит/сек
Count of elements : 14
Размер потока : 465 байт (0%)
Заголовок : Forced BD
Язык : Russian
Default : Нет
Forced : Нет

Текст #2
Идентификатор : 5
Формат : UTF-8
Идентификатор кодека : S_TEXT/UTF8
Идентификатор кодека/Информация : UTF-8 Plain Text
Продолжительность : 1 ч. 20 м.
Битрейт : 57 бит/сек
Count of elements : 665
Размер потока : 33,6 Кбайт (0%)
Заголовок : Full BD
Язык : Russian
Default : Нет
Forced : Нет

Текст #3
Идентификатор : 6
Формат : UTF-8
Идентификатор кодека : S_TEXT/UTF8
Идентификатор кодека/Информация : UTF-8 Plain Text
Продолжительность : 1 ч. 20 м.
Битрейт : 38 бит/сек
Count of elements : 707
Размер потока : 22,5 Кбайт (0%)
Заголовок : SDH BD
Язык : English
Default : Нет
Forced : Нет

Меню
00:00:00.000 : en:00:00:00.000
00:10:24.833 : en:00:10:24.833
00:21:43.385 : en:00:21:43.385
00:31:52.702 : en:00:31:52.702
00:40:15.079 : en:00:40:15.079
00:50:28.442 : en:00:50:28.442
01:01:28.268 : en:01:01:28.268
01:11:08.264 : en:01:11:08.264


Источник http://listRutor.org

Внимание! AdBlock блокирует показ скриншотов, все вопросы к разработчикам )))
Трекер:  [ 04-Июн-2020 12:30 ]

  

Скачать .torrent

Размер .torrent файла 21 KB


Размер: 4.15 GB
Хэш (hash) релиза: fa7f83026176c30afb3e790c2bd4acfa3e8b7f38
Подписка на обновления:

Торренты, похожие на Джона Хекс Jonah Hex скачать торрент

Форум Название Автор Размер S L Добавлен
Зарубежные фильмы до 2016 ·· Джона Хекс / Jonah Hex (Джимми Хейярд) [2010 г., Боевик, триллер, драма, вестерн, Blu-ray Rip, 1080р] Phoenix 89105668988.3 GB 0 0 1296650400

15:40

2-Фев-11

Зарубежные фильмы до 2016 ·· Джона Хекс / Jonah Hex (Джимми Хейуорд / Jimmy Hayward) [2010 г., США. Боевик, триллер, драма, вестерн. BDRip-AVC] MVO + original eng + Sub (Rus, Eng) out 23068144522.15 GB 0 0 1296633261

10:54

2-Фев-11

Зарубежные фильмы до 2016 ·· Джона Хекс / Jonah Hex (Джимми Хейуорд / Jimmy Hayward) [2010, США, боевик, триллер, драма, вестерн, Blu-ray, 1080р] [CEE] MaTaDoRe 2361358424721.99 GB 0 0 1287829470

13:24

23-Окт-10

Зарубежные фильмы до 2016 ·· Джона Хекс / Jonah Hex (Джимми Хейуорд / Jimmy Hayward) [2010 г., США. Боевик, триллер, драма, вестерн. BDRemux 1080p] VitalMedix 1769595883316.48 GB 0 0 1287509987

20:39

19-Окт-10

Зарубежные фильмы до 2016 ·· Джона Хекс / Jonah Hex (Джимми Хейярд / Jimmy Hayward) [2010, США, Боевик, триллер, драма, вестерн, BDRip] MVO + Original + Sub (rus, eng) VitalMedix 15616116801.45 GB 1 1 1287305316

11:48

17-Окт-10

Зарубежные фильмы до 2016 ·· Джона Хекс / Jonah Hex (Джимми Хейуорд / Jimmy Hayward) [2010, боевик, триллер, драма, BDRip, 720p] VO Bot 48713756994.54 GB 0 0 1286384500

20:01

6-Окт-10

Superjob
dpd RU

Еще никто не оставлял запись к записи скачать торрент Джона Хекс Jonah Hex . Будь первым!

!Обратная связь