Скачать через торрент Подкидыш Фильм бесплатно в хорошем качестве torrent

Скачивайте на UnionPeer.org фильмы через торрент без регистрации. Новинки кино в хорошем качестве через торрент. На UnionPeer.org можно скачать через торрент фильмы 2014 и 2015 годов. Самые новые фильмы.

Скачать торрент Подкидыш бесплатно через .torrent фильм мультфильм сериал

Статистика раздачи
Размер:  746 MB   |    Зарегистрирован:  3 месяца 12 дней   |    .torrent скачан:  97 раз   |   

Пиры будут получены при скачивании

 

Скачать Подкидыш (2019) WEB-DLRip от GeneralFilm через torrent

 
Sprinthost
загрузка...
 
Автор Сообщение

Galfimbul ghost

avatar Galfimbul ghost


Оригинальное название: Подкидыш
Год выпуска: 2019
Жанр: Комедия, семейный, приключения
Выпущено: Россия, Киностудия им. М. Горького
Режиссер: Сергей Васильев
В ролях: Малика Лапшина, Виталий Герасимов, Сергей Маковецкий, Павел Баршак, Ирина Вербицкая, Инга Оболдина, Сергей Рудзевич, Виктор Логинов, Юлия Топольницкая, Юрий Назаров

О фильме: Фильм о приключениях потерявшейся девочки в Москве. Мир мегаполиса в начале XXI века вовсе не добр и не безопасен, но пятилетняя Наташа так искренне и доверчиво относится к окружающим, что люди, встречаясь с ней, меняются к лучшему.

Качество: WEB-DLRip
Видео: XviD build 73, 720x304 (2.35:1), 24.000 fps, 901 Kbps (0.171 bit/pixel)
Аудио: 48.0 kHz, MP3, 2/0 ch, 192 kbps
Продолжительность: 01:34:36
Перевод: Не требуется [Русский]
Cубтитры: нет
General
Complete name : D:RazdachiPodkidysh.2019.WEB-DLRip.GeneralFilm.avi
Format : AVI
Format/Info : Audio Video Interleave
File size : 746 MiB
Duration : 1 h 34 min
Overall bit rate : 1 102 kb/s
Writing application : VirtualDubMod 1.5.10.3 | www.virtualdub-fr.org || (build 2550/release)
Writing library : VirtualDubMod build 2550/release

Video
ID : 0
Format : MPEG-4 Visual
Format profile : Advanced Simple@L5
Format settings : BVOP1 / Custom Matrix
Format settings, BVOP : 1
Format settings, QPel : No
Format settings, GMC : No warppoints
Format settings, Matrix : Custom
Codec ID : XVID
Codec ID/Hint : XviD
Duration : 1 h 34 min
Bit rate : 901 kb/s
Width : 720 pixels
Height : 304 pixels
Display aspect ratio : 2.35:1
Frame rate : 24.000 FPS
Color space : YUV
Chroma subsampling : 4:2:0
Bit depth : 8 bits
Scan type : Progressive
Compression mode : Lossy
Bits/(Pixel*Frame) : 0.171
Stream size : 609 MiB (82%)
Writing library : XviD 73

Audio
ID : 1
Format : MPEG Audio
Format version : Version 1
Format profile : Layer 3
Codec ID : 55
Codec ID/Hint : MP3
Duration : 1 h 34 min
Bit rate mode : Constant
Bit rate : 192 kb/s
Channel(s) : 2 channels
Sampling rate : 48.0 kHz
Frame rate : 41.667 FPS (1152 SPF)
Compression mode : Lossy
Stream size : 130 MiB (17%)
Alignment : Aligned on interleaves
Interleave, duration : 42 ms (1.00 video frame)
Interleave, preload duratio : 504 ms
Writing library : LAME3.99r
Encoding settings : -m s -V 4 -q 2 -lowpass 18.6 -b 192
Источник http://listRutor.org

Внимание! AdBlock блокирует показ скриншотов, все вопросы к разработчикам )))
Трекер:  [ 09-Июн-2020 10:50 ]

  

Скачать .torrent

Размер .torrent файла 15 KB


Размер: 746 MB
Хэш (hash) релиза: 65f11a0018e0cbbe7171705cfb8d533c58ddd2ac
Подписка на обновления:

Торренты, похожие на Подкидыш скачать торрент

Форум Название Автор Размер S L Добавлен
Зарубежные фильмы до 2016 ·· Жюстиньен Подкидыш, или внебрачный ребенок Бога / Justinien Trouvé, ou le bâtard de Dieu (Кристиан Фешнер / Christian Fechner) [1993, Франция, драма, DVD9 (Custom)] R2, VO (А.Дасевич) + Sub (Rus (enoeno, Lisok), Eng) + Original Fre Galfimbul ghost 78218874887.28 GB 0 0 1514648185

18:36

30-Дек-17

Российские сериалы ·· Подкидыши / Окно жизни / Сезон: 2 / Серии: 1-24 из 24 (Максим Паперник, Владимир Мельниченко) [2017, драма, мелодрама, WEBRip] Galfimbul ghost 1385286656012.9 GB 0 0 1506774559

15:29

30-Сен-17

Российские фильмы до 2016 ·· Подкидыш (Татьяна Лукашевич) [1939, комедия, TVRip] (Полная оригинальная версия) Galfimbul ghost 10850372761.01 GB 0 0 1393772489

18:01

2-Мар-14

Российские фильмы до 2016 ·· Подкидыш (Татьяна Лукашевич) [1939, СССР, комедия, 2хDVD5] цветной + чёрно-белый Galfimbul ghost 78917816327.35 GB 0 0 1356163620

11:07

22-Дек-12

Российские фильмы до 2016 ·· Подкидыш (Татьяна Лукашевич) [1939, комедия, семейный, DVDRip] цветная версия Galfimbul ghost 14416240641.34 GB 0 0 1356014340

17:39

20-Дек-12

Российские фильмы до 2016 ·· Подкидыш (Татьяна Лукашевич) [1939 г., Комедия, DVDRip] Цветная версия Galfimbul ghost 11639726081.08 GB 0 0 1320608802

22:46

6-Ноя-11

Российские фильмы до 2016 ·· Подкидыш (Татьяна Лукашевич) [1939 г., Комедия, DVDRip] Цветная версия Galfimbul ghost 777029632741 MB 0 0 1320419670

18:14

4-Ноя-11

dpd RU

Еще никто не оставлял запись к записи скачать торрент Подкидыш . Будь первым!

!Обратная связь