Скачать порно через торрент Emanuelle nera: Orient reportage Emanuelle in Bangkok UnionPeer.org бесплатно онлайн HD качество

Скачать новое порно 2015, 2014 новинки через торрент UnionPeer.org

Порно торрент бесплатно ЮнионПир.орг

Статистика раздачи
Размер:  19.65 GB   |    Зарегистрирован:  1 месяц 24 дня   |    .torrent скачан:  73 раза   |   

Пиры будут получены при скачивании

Качают:  1  
   
Sprinthost
загрузка...
 
Автор Сообщение

Galfimbul ghost

avatar Galfimbul ghost


Emanuelle nera: Orient reportage / Emanuelle in Bangkok / Эммануэль на Востоке / Эммануэль в Бангкоке

Год производства: 1976 г.
Страна: Italy
Жанр: Drama
Продолжительность: 01:34:21

Режиссер: Joe D''Amato
Студия: Flaminia Produzioni Cinematografiche, Kristal Film, San Nicola Produzione Cinematografica

Язык: Итальянский
Доп. языки: English
Субтитры: English / UTF-8, German / PGS

В ролях: Laura Gemser ... Emanuelle
Gabriele Tinti ... Roberto
Ely Galleani ... Frances
Ivan Rassimov ... Prince Sanit
Venantino Venantini ... David
Giacomo Rossi Stuart ... Jimmy
Koike Mahoco ... Gee
Fausto Di Bella
Gaby Bourgois
Chris Avram ... Thomas Quizet
Attilio Duse
Debra Berger ... Debra

Описание: Эмманюэль путешествует по свету, совмещая личные интересы с выполнением обязанностей фотокорреспондента. По прибытии в Таиланд она заводит знакомство с принцем, рассчитывая через него получить возможность сфотографировать самого короля. Но слишком близко Эмманюэль подобралась к государственным тайнам, и над ней нависает опасность…

Доп. материалы: https://www.imdb.com/title/tt0074478/

Тип HD видео: 1080p
Качество видео: BDRemux 1080p
Формат видео: MKV
Видео: MPEG-4 AVC / 1920 x 1080 / 16:9 / 23.976 FPS / 8 bits / 28.0 Mb/s / High@L4.1 /
Аудио #1: Italian / DTS-HD MA / 2.0 ch / 914kb/s / Stereo
Аудио #2: English / DTS-HD MA / 2.0 ch / 897kb/s / Stereo

General
Unique ID : 33682177790225554226595628247888103293 (0x1956F3942EBEC20E53F9D3029317077D)
Complete name : F:\Новая папка (26)\Emanuelle nera Orient reportage 1976 1080p BluRay REMUX AVC DTS-HD MA 2.0-m3th.mkv
Format : Matroska
Format version : Version 4
File size : 19.6 GiB
Duration : 1 h 34 min
Overall bit rate mode : Variable
Overall bit rate : 29.8 Mb/s
Encoded date : UTC 2020-04-24 22:23:20
Writing application : mkvmerge v45.0.0 (''Heaven in Pennies'') 64-bit
Writing library : libebml v1.3.10 + libmatroska v1.5.2

Video
ID : 1
Format : AVC
Format/Info : Advanced Video Codec
Format profile : High@L4.1
Format settings : CABAC / 3 Ref Frames
Format settings, CABAC : Yes
Format settings, RefFrames : 3 frames
Codec ID : V_MPEG4/ISO/AVC
Duration : 1 h 34 min
Bit rate mode : Variable
Bit rate : 28.0 Mb/s
Maximum bit rate : 38.0 Mb/s
Width : 1 920 pixels
Height : 1 080 pixels
Display aspect ratio : 16:9
Frame rate mode : Constant
Frame rate : 23.976 (24000/1001) FPS
Color space : YUV
Chroma subsampling : 4:2:0
Bit depth : 8 bits
Scan type : Progressive
Bits/(Pixel*Frame) : 0.563
Stream size : 18.4 GiB (94%)
Language : English
Default : No
Forced : No
Color range : Limited
Color primaries : BT.709
Transfer characteristics : BT.709
Matrix coefficients : BT.709

Audio #1
ID : 2
Format : DTS XLL
Format/Info : Digital Theater Systems
Commercial name : DTS-HD Master Audio
Codec ID : A_DTS
Duration : 1 h 34 min
Bit rate mode : Variable
Bit rate : 914 kb/s
Channel(s) : 2 channels
Channel layout : L R
Sampling rate : 48.0 kHz
Frame rate : 93.750 FPS (512 SPF)
Bit depth : 16 bits
Compression mode : Lossless
Stream size : 617 MiB (3%)
Title : Stereo
Language : Italian
Default : Yes
Forced : No

Audio #2
ID : 3
Format : DTS XLL
Format/Info : Digital Theater Systems
Commercial name : DTS-HD Master Audio
Codec ID : A_DTS
Duration : 1 h 34 min
Bit rate mode : Variable
Bit rate : 897 kb/s
Channel(s) : 2 channels
Channel layout : L R
Sampling rate : 48.0 kHz
Frame rate : 93.750 FPS (512 SPF)
Bit depth : 16 bits
Compression mode : Lossless
Stream size : 605 MiB (3%)
Title : Stereo
Language : English
Default : No
Forced : No

Text #1
ID : 4
Format : UTF-8
Codec ID : S_TEXT/UTF8
Codec ID/Info : UTF-8 Plain Text
Duration : 1 h 29 min
Bit rate : 48 b/s
Count of elements : 850
Stream size : 31.4 KiB (0%)
Language : English
Default : Yes
Forced : No

Text #2
ID : 5
Format : PGS
Muxing mode : zlib
Codec ID : S_HDMV/PGS
Codec ID/Info : Picture based subtitle format used on BDs/HD-DVDs
Duration : 1 h 27 min
Bit rate : 27.8 kb/s
Count of elements : 1084
Stream size : 17.5 MiB (0%)
Language : German
Default : No
Forced : No

Menu
00:00:00.000 : en:Chapter 01
00:04:27.934 : en:Chapter 02
00:13:15.628 : en:Chapter 03
00:16:53.220 : en:Chapter 04
00:22:38.774 : en:Chapter 05
00:29:48.077 : en:Chapter 06
00:34:36.741 : en:Chapter 07
00:44:34.213 : en:Chapter 08
00:49:48.276 : en:Chapter 09
00:56:29.803 : en:Chapter 10
01:02:15.773 : en:Chapter 11
01:06:42.081 : en:Chapter 12
01:13:54.680 : en:Chapter 13
01:18:28.829 : en:Chapter 14
01:25:48.643 : en:Chapter 15
01:31:52.131 : en:Chapter 16


Внимание! AdBlock блокирует показ скриншотов, все вопросы к разработчикам )))
Трекер:  [ 10-Июн-2020 20:20 ]

  

Скачать .torrent

Размер .torrent файла 197 KB


Размер: 19.65 GB
Хэш (hash) релиза: 32e26f4a4a4e602b580a082619560be539fd344b
dpd RU

Еще никто не оставлял запись к записи скачать торрент Emanuelle nera: Orient reportage Emanuelle in Bangkok . Будь первым!

!Обратная связь