Скачать через торрент Героические лузеры La odisea de los giles Фильм бесплатно в хорошем качестве torrent

Скачивайте на UnionPeer.org фильмы через торрент без регистрации. Новинки кино в хорошем качестве через торрент. На UnionPeer.org можно скачать через торрент фильмы 2014 и 2015 годов. Самые новые фильмы.

Скачать торрент Героические лузеры La odisea de los giles бесплатно через .torrent фильм мультфильм сериал

Статистика раздачи
Размер:  5.08 GB   |    Зарегистрирован:  28 дней   |    .torrent скачан:  151 раз   |   

Пиры будут получены при скачивании

 

Скачать Героические лузеры / La odisea de los giles (2019) BDRip 720p | A через torrent

 
Timeweb Many GEOs Sprinthost
загрузка...
 
Автор Сообщение

Galfimbul ghost

avatar Galfimbul ghost


Героические лузеры / Одиссея полудурков /La odisea de los giles / Heroic Losers

Год выхода: 2019
Жанр: драма, комедия, криминал, приключения
Режиссер: Себастьян Боренштейн
В ролях: Рикардо Дарин, Чино Дарин, Луис Брандони, Даниэль Араос, Вероника Льянас, Карлос Беллосо, Рита Кортесе, Марко Антонио Капони, Алехандро Хихена, Гильермо Якубович, Герман Родригез, Рамиро Вайо, Марта Пятигорски, Карлос Хорхе Пиньейро

О фильме:
Несколько друзей из маленького городка решили создать собственное дело. Но не успели они положить по крохам собранные деньги в банк, как тот лопнул. Друзья в отчаянии: за одну минуту они потеряли всё и превратились в законченных неудачников. Однако вскоре становится известно, что их сбережениями за день до краха завладел коварный адвокат, вступивший в преступный сговор с управляющим банком. Выход у героев один — чтобы вернуть нажитое непосильным трудом, надо ограбить грабителя.



Страна: Аргентина, Испания
Студия: Kenya Films, Kramer & Sigman Films, Television Espanola (TVE)
Продолжительность: 01:55:34
Перевод: Авторский [Роман Янкелевич]

Файл
Кодек: H.264
Качество: BDRip 720p
Видео: AVC, 1280x536 (2.40:1), 24 fps ~ 5300 Kbps
Звук:
AC3, 48 KHz, 6 ch ~ 448 Kb/s (русский)
AC3, 48 KHz, 6 ch ~ 640 Kb/s (испанский)
Субтитры: английские, испанские
General
Unique ID : 219666761076536631571251128589862637026 (0xA542477FD63D25DAB101513788210DE2)
Complete name : J:wotheroic.losers.2019.720p.bluray.x264-usury.mkv
Format : Matroska
Format version : Version 4 / Version 2
File size : 5.08 GiB
Duration : 1h 55mn
Overall bit rate : 6 295 Kbps
Encoded date : UTC 2020-06-11 04:45:15
Writing application : mkvmerge v7.7.0 ('Six Voices') 32bit built on Feb 28 2015 23:23:00
Writing library : libebml v1.3.1 + libmatroska v1.4.2
_STATISTICS_WRITING_APP : mkvmerge v7.7.0 ('Six Voices') 32bit built on Feb 28 2015 23:23:00
_STATISTICS_WRITING_DATE_UTC : 2020-06-11 04:45:15
_STATISTICS_TAGS : BPS DURATION NUMBER_OF_FRAMES NUMBER_OF_BYTES
DURATION : 01:55:34.880000000
NUMBER_OF_FRAMES : 216715
NUMBER_OF_BYTES : 388353280

Video
ID : 1
Format : AVC
Format/Info : Advanced Video Codec
Format profile : High@L4.1
Format settings, CABAC : Yes
Format settings, ReFrames : 8 frames
Codec ID : V_MPEG4/ISO/AVC
Duration : 1h 55mn
Bit rate : 5 082 Kbps
Width : 1 280 pixels
Height : 536 pixels
Display aspect ratio : 2.40:1
Frame rate mode : Constant
Frame rate : 24.000 fps
Color space : YUV
Chroma subsampling : 4:2:0
Bit depth : 8 bits
Scan type : Progressive
Bits/(Pixel*Frame) : 0.309
Stream size : 4.10 GiB (81%)
Writing library : x264 core 159 r2991 1771b55
Encoding settings : cabac=1 / ref=8 / deblock=1:-3:-3 / analyse=0x3:0x133 / me=umh / subme=9 / psy=1 / psy_rd=1.00:0.15 / mixed_ref=1 / me_range=16 / chroma_me=1 / trellis=2 / 8x8dct=1 / cqm=0 / deadzone=21,11 / fast_pskip=1 / chroma_qp_offset=-3 / threads=17 / lookahead_threads=1 / sliced_threads=0 / nr=0 / decimate=1 / interlaced=0 / bluray_compat=0 / constrained_intra=0 / bframes=3 / b_pyramid=2 / b_adapt=2 / b_bias=0 / direct=3 / weightb=1 / open_gop=0 / weightp=2 / keyint=250 / keyint_min=24 / scenecut=40 / intra_refresh=0 / rc_lookahead=60 / rc=crf / mbtree=1 / crf=14.0 / qcomp=0.60 / qpmin=0 / qpmax=69 / qpstep=4 / ip_ratio=1.40 / aq=1:1.00
Language : English
Default : Yes
Forced : No
Color range : Limited
Matrix coefficients : BT.709
_STATISTICS_WRITING_APP : mkvmerge v7.7.0 ('Six Voices') 32bit built on Feb 28 2015 23:23:00
_STATISTICS_WRITING_DATE_UTC : 2020-06-11 04:45:15
_STATISTICS_TAGS : BPS DURATION NUMBER_OF_FRAMES NUMBER_OF_BYTES
DURATION : 01:55:34.917000000
NUMBER_OF_FRAMES : 166438
NUMBER_OF_BYTES : 4498389573

Audio #1
ID : 2
Format : AC-3
Format/Info : Audio Coding 3
Mode extension : CM (complete main)
Format settings, Endianness : Big
Codec ID : A_AC3
Duration : 1h 55mn
Bit rate mode : Constant
Bit rate : 448 Kbps
Channel(s) : 6 channels
Channel positions : Front: L C R, Side: L R, LFE
Sampling rate : 48.0 KHz
Compression mode : Lossy
Stream size : 370 MiB (7%)
Title : AVO
Language : Russian
Default : Yes
Forced : No

Audio #2
ID : 3
Format : AC-3
Format/Info : Audio Coding 3
Mode extension : CM (complete main)
Format settings, Endianness : Big
Codec ID : A_AC3
Duration : 1h 55mn
Bit rate mode : Constant
Bit rate : 640 Kbps
Channel(s) : 6 channels
Channel positions : Front: L C R, Side: L R, LFE
Sampling rate : 48.0 KHz
Compression mode : Lossy
Stream size : 529 MiB (10%)
Language : Spanish
Default : No
Forced : No

Text #1
ID : 4
Format : UTF-8
Codec ID : S_TEXT/UTF8
Codec ID/Info : UTF-8 Plain Text
Title : English
Language : English
Default : No
Forced : No

Text #2
ID : 5
Format : PGS
Muxing mode : zlib
Codec ID : S_HDMV/PGS
Codec ID/Info : Picture based subtitle format used on BDs/HD-DVDs
Title : English
Language : English
Default : No
Forced : No

Text #3
ID : 6
Format : PGS
Muxing mode : zlib
Codec ID : S_HDMV/PGS
Codec ID/Info : Picture based subtitle format used on BDs/HD-DVDs
Title : Spanish SDH
Language : Spanish
Default : No
Forced : No

Menu
00:00:00.000 : en:00:00:00.000
00:07:44.292 : en:00:07:44.292
00:17:48.083 : en:00:17:48.083
00:28:58.833 : en:00:28:58.833
00:39:00.875 : en:00:39:00.875
00:49:37.875 : en:00:49:37.875
00:59:21.167 : en:00:59:21.167
01:10:27.750 : en:01:10:27.750
01:20:04.792 : en:01:20:04.792
01:28:09.625 : en:01:28:09.625
01:38:59.792 : en:01:38:59.792
01:39:01.792 : en:01:39:01.792
01:47:21.208 : en:01:47:21.208
Источник http://listRutor.org

Внимание! AdBlock блокирует показ скриншотов, все вопросы к разработчикам )))
Трекер:  [ 11-Июн-2020 08:50 ]

  

Скачать .torrent

Размер .torrent файла 26 KB


Размер: 5.08 GB
Хэш (hash) релиза: 867998364c1bbc7527dde6250791bf7404771331
Подписка на обновления:
Superjob
dpd RU

Еще никто не оставлял запись к записи скачать торрент Героические лузеры La odisea de los giles . Будь первым!

!Обратная связь